<?xml version="1.0" standalone="no"?>
<!DOCTYPE svg PUBLIC "-//W3C//DTD SVG 1.1//EN" "http://www.w3.org/Graphics/SVG/1.1/DTD/svg11.dtd" >
<svg xmlns="http://www.w3.org/2000/svg" xmlns:xlink="http://www.w3.org/1999/xlink" version="1.1">
<metadata>
Created by FontForge 20161013 at Wed Jun 25 19:55:46 2014
 By ,,,
Copyright (c) 2014 by studio kmzero. All rights reserved.
</metadata>
<defs>
<font id="anothershabby" horiz-adv-x="1673" >
  <font-face 
    font-family="another shabby"
    font-weight="400"
    font-style="italic"
    font-stretch="normal"
    units-per-em="2000"
    panose-1="2 0 5 3 0 0 0 2 0 3"
    ascent="1600"
    descent="-400"
    x-height="762"
    cap-height="1525"
    bbox="-980 -1093 2310 2150"
    underline-thickness="100"
    underline-position="-400"
    slope="-20"
    unicode-range="U+0020-FB01"
  />
<missing-glyph horiz-adv-x="1222" 
d="M844 250q-57 -48 -129 -77t-153 -29t-152 29t-128 77h562zM248 282q-50 57 -77 129t-27 153q0 77 24.5 143.5t69.5 122.5h556zM280 876q57 51 129 79.5t153 28.5t152.5 -29t125.5 -79h-560zM980 564q0 -77 -24.5 -144.5t-69.5 -123.5h-558l546 550q106 -131 106 -282z
M698 76q-66 -18 -136 -18q-108 0 -200.5 41t-160.5 110t-106.5 161t-38.5 194q0 108 41 201t110 161t161 107t194 39q109 0 202 -42t160.5 -112.5t105.5 -162t38 -191.5q0 -92 -29 -170.5t-79 -141.5t-117.5 -108t-144.5 -68zM684 1012q-54 18 -122 18q-101 0 -186 -38
t-146.5 -102t-96.5 -148.5t-35 -177.5q0 -94 35.5 -178.5t98 -149t147.5 -102.5t183 -38q96 0 181 36.5t148 100t100 148.5t37 183q0 85 -27.5 158.5t-74 131.5t-109.5 98t-133 60z" />
    <glyph glyph-name=".notdef" horiz-adv-x="1222" 
d="M844 250q-57 -48 -129 -77t-153 -29t-152 29t-128 77h562zM248 282q-50 57 -77 129t-27 153q0 77 24.5 143.5t69.5 122.5h556zM280 876q57 51 129 79.5t153 28.5t152.5 -29t125.5 -79h-560zM980 564q0 -77 -24.5 -144.5t-69.5 -123.5h-558l546 550q106 -131 106 -282z
M698 76q-66 -18 -136 -18q-108 0 -200.5 41t-160.5 110t-106.5 161t-38.5 194q0 108 41 201t110 161t161 107t194 39q109 0 202 -42t160.5 -112.5t105.5 -162t38 -191.5q0 -92 -29 -170.5t-79 -141.5t-117.5 -108t-144.5 -68zM684 1012q-54 18 -122 18q-101 0 -186 -38
t-146.5 -102t-96.5 -148.5t-35 -177.5q0 -94 35.5 -178.5t98 -149t147.5 -102.5t183 -38q96 0 181 36.5t148 100t100 148.5t37 183q0 85 -27.5 158.5t-74 131.5t-109.5 98t-133 60z" />
    <glyph glyph-name=".null" horiz-adv-x="0" 
 />
    <glyph glyph-name="nonmarkingreturn" horiz-adv-x="666" 
 />
    <glyph glyph-name="space" unicode=" " horiz-adv-x="626" 
 />
    <glyph glyph-name="exclam" unicode="!" horiz-adv-x="817" 
d="M894 1257q-59 -144 -112.5 -273t-113 -248.5t-130.5 -232t-165 -223.5q-14 11 -34.5 23.5t-39.5 24.5t-32.5 23t-13.5 19q0 17 12 65t33 116t49.5 150.5t60.5 167.5t66 167.5t67 151.5t63 118t54 68q12 10 44.5 8t69 -16.5t71 -41.5t51.5 -67zM43 114q35 60 67.5 94
t75.5 34q5 0 14 -1.5t19 -4.5t20 -6.5t16 -7.5q13 -21 25.5 -38.5t22.5 -35.5t15.5 -37.5t5.5 -44.5q0 -9 -10.5 -29t-28 -43t-39.5 -45.5t-45 -38.5q-41 8 -81 24t-65.5 41t-31.5 59.5t20 79.5z" />
    <glyph glyph-name="quotedbl" unicode="&#x22;" horiz-adv-x="755" 
d="M231 962q32 118 60.5 235t59.5 235q4 18 13 34t21 28.5t27 20t32 7.5q24 0 47 -16t41 -38t28.5 -43.5t10.5 -31.5q-1 -28 -16 -64.5t-37.5 -77t-50.5 -83t-55.5 -81.5t-52 -72.5t-40.5 -57.5q-11 -16 -29.5 -29.5t-34 -17t-24.5 7.5t0 44zM507 1000q17 86 40.5 172
t54.5 167q14 37 31.5 55t41.5 18q15 0 40.5 -13t50 -31t42.5 -37.5t17 -33.5q0 -11 -6 -24.5t-17 -33.5q-39 -66 -77 -131.5t-78 -129.5q-22 -36 -50.5 -55.5t-51.5 -19t-35.5 23.5t-2.5 73z" />
    <glyph glyph-name="numbersign" unicode="#" 
d="M807 34q82 0 155 30t131 79h-570q57 -49 129 -79t155 -30zM571 189h564q45 55 70 124t25 147q0 80 -26.5 150t-80.5 139zM807 977q-104 0 -197.5 -39.5t-164 -109t-112.5 -164t-42 -204.5q0 -103 39.5 -196t108.5 -163.5t163.5 -112.5t204.5 -42q35 0 70 5.5t68 15.5
q78 23 146.5 68t119.5 109t80.5 144t29.5 172q0 101 -38.5 194.5t-107 165t-163 114.5t-205.5 43zM807 -14q-100 0 -186 38.5t-149.5 103.5t-99.5 151t-36 181q0 94 35 179.5t98 151t149.5 104t188.5 38.5q67 0 124 -17q72 -19 135 -60t110.5 -100t75 -134t27.5 -162
q0 -98 -37 -184.5t-101.5 -151t-150.5 -101.5t-183 -37zM478 730q-46 -55 -71.5 -122.5t-25.5 -147.5q0 -82 28.5 -155t77.5 -131l555 556h-564zM807 887q-83 0 -155.5 -29t-130.5 -80h566q-54 50 -126 79.5t-154 29.5zM957 -83l-90 -16l4 -26l34 6l16 -89l26 5l-16 89l31 6
zM1058 -117q-2 6 -9 8l-11 5h-15h-7h-9h-2v1q-3 3 -3 4l-2 1q2 1 2 4q0 1 1 1h2q0 1 5 1v3h1h5h3q4 0 4 1q4 0 8 1q0 2 1 3t1 2l5 10l-7 3q-8 4 -12 4q-2 0 -4.5 1t-4.5 1q-4 0 -6 -1t-4 -1l-13 -7q-2 -2 -4 -4.5t-3 -6.5q-7 -6 -7 -14v-5t2 -7q3 -8 10 -13q1 -1 3.5 -2.5
t4.5 -3.5q3 0 6.5 -1t5.5 -1h13h9h2q2 0 4 -2q3 0 3 -2h3v-5q0 -2 -0.5 -3t-0.5 -2v-1q-2 0 -3 -2.5t-2 -2.5q-2 -2 -6 -2q0 -1 -2 -1h-3q-2 0 -3 0.5t-3 0.5h-6h-8l-4 -2q-1 0 -1 -1.5t-1 -1.5l-5 -8q1 -4 3 -5.5t4 -4.5q3 -1 6.5 -2t6.5 -1q8 -3 12 -2q3 0 7 1t8 1
q3 2 6.5 3.5t7.5 4.5q4 4 5.5 6t4.5 7q1 4 3 7t2 8q0 4 -0.5 7.5t-3.5 6.5q0 8 -5 11zM1108 -122q-2 3 -4 3t-3.5 1t-3.5 1q-1 -2 -6 -2l-7 -4q-1 -1 -1 -3v-2q-2 -2 -2 -4v-2q0 -3 1 -4q0 -1 1 -1q0 -6 3 -6q2 -5 7 -5h6q5 0 7 2q1 2 3 2.5t2 2.5v2q0 2 2 2l3 3v2q0 6 -5 6
q0 6 -3 6zM831 -175q-1 0 -1 4q0 1 -1.5 1t-1.5 1q0 4 -1 4l-41 60q0 1 -2 2q-2 3 -9 3h-9h-14l3 -119l27 1v79l51 -79h25v118h-30zM584 -85l48 -18l8 25l-72 26l-42 -105l26 -12l15 41l38 -15l10 26l-37 14zM733 -114l-9 11q-3 3 -6.5 5t-7.5 4t-7 2.5t-8 2.5q-5 1 -8.5 1
h-7.5q-10 0 -14 -4q-4 -1 -7.5 -2t-7.5 -4l-11 -10q-4 -8 -10 -11q-2 -5 -3.5 -8.5t-1.5 -6.5v-18l3 -15l6 -13l11 -11q3 -4 7 -5.5t6 -3.5q7 -4 15 -4q5 -1 8.5 -1h7.5q5 0 13 2q4 2 8.5 3t6.5 4q6 2 12 10l8 11q4 7 7 17v15q0 3 -1 6.5t-3 8.5q-1 5 -2.5 7.5t-3.5 6.5z
M715 -153q0 -3 -1.5 -6.5t-3.5 -5.5q-3 -4 -4.5 -5.5l-4.5 -4.5q-3 -1 -5.5 -2t-6.5 -1q-6 -3 -11 0q-4 0 -7.5 1t-5.5 2l-8 10q-2 2 -2.5 5.5t-0.5 6.5q-3 5 0 14q0 6 5 11l6 9l13 5h11l12 -5l9 -9q2 -3 3.5 -5t1.5 -6q2 -8 0 -14zM1294 186q-1 -2 -2.5 -4t-1.5 -6
q0 -2 1.5 -4t2.5 -4l40 -58l-69 10h-10l-9 -6l-8 -16l96 -65l16 22l-46 33l60 -13l11 20l-33 50l47 -30l15 24l-98 64zM1281 59l-13 13l-15 3q-4 3 -15 3q-4 0 -7.5 -0.5t-7.5 -2.5l-13 -3q-4 -3 -8 -6.5t-7 -6.5l-4 -6t-4 -5q-3 -4 -4 -7.5t-3 -7.5q0 -4 -1 -7.5t-1 -7.5
v-7t2 -8l4 -14l10 -12l14 -10q4 -1 7 -3.5t8 -2.5q4 0 7.5 -1.5t7.5 -1.5q2 0 6 1.5t9 1.5q2 0 5.5 2.5t7.5 3.5q7 3 13 10l10 12q1 2 3 5.5t2 8.5q1 4 1 14v16l-6 12q-2 4 -4 7.5t-4 6.5zM1268 6q-4 -9 -8 -10q-7 -7 -10 -8q-3 -2 -6.5 -2h-5.5q-4 0 -7 1t-5 1l-11 8
q-4 4 -7 11q-1 4 -1 11q0 8 1 11q3 8 7 12l11 8q3 0 6 0.5t6 0.5q4 0 12 -2q2 -2 4.5 -3.5t5.5 -5.5q3 -1 4.5 -4t3.5 -6t2 -12v-5.5t-2 -5.5zM1194 -54l-7 -4q-2 0 -3 -2.5t-1 -4.5l-5 -9l-9 -6q-4 -2 -6 -3.5t-5 -1.5q-7 -3 -13 0q-2 2 -5 2.5t-6 2.5q-6 4 -7 11
q-5 2 -5 11q-4 3 0 14q0 2 0.5 4t1.5 7l4 4t5 3q7 4 9 4q3 1 10 1q2 0 10 4q2 3 5 5l2 6v9q-3 4 -12 4h-13l-14 -5l-11 -5q-2 -2 -5.5 -4.5t-6.5 -6.5q-2 -2 -4 -5.5t-4 -7.5l-6 -15v-16q0 -4 1.5 -7t1.5 -7l6 -15q3 -4 6 -6t5 -5l14 -10l12 -2q5 -2 16 -2q4 0 7 1t7 2
q5 1 8.5 3.5t6.5 5.5l5 2.5t5 4.5q3 1 5 4t5 6l4 14q4 4 4 13l-12 2h-6zM504 -14l-102 -74l16 -9q0 -1 2 -1h3q2 0 2.5 -0.5t2.5 0.5h5q3 0 4 1l11 9l39 -22l-2 -15v-5q0 -2 1 -3q0 -1 1 -1v-3q0 -2 2 -2l4 -3l16 -10l17 125zM493 -56v-2v-3l-2 -22l-18 11l16 14h2q2 0 2 1
v1v1h1q1 1 2 1zM463 -19l17 20l-69 59l-20 -21l27 -21l-58 -67l20 -18l60 69zM243 137l82 -10q2 0 6 1q2 0 2.5 0.5t2.5 0.5l11 8l-45 77l-23 -14l26 -44l-82 9q-2 0 -5.5 -0.5t-7.5 -3.5l-10 -5l45 -78l23 14zM342 29l22 19l-27 30l14 11l31 -39l21 18l-49 60l-90 -76
l51 -58l19 18l-32 37l17 11zM176 468l50 3q2 -2 4.5 -4t3.5 -4q2 -2 3.5 -5t1.5 -5q1 -7 4 -12q0 -3 0.5 -6t0.5 -5q0 -8 -0.5 -14t-3.5 -11q-1 -7 -4 -12t-7 -10q-7 -9 -19 -13q-11 -7 -22 -7h-18q-4 2 -7.5 3.5t-7.5 3.5q-4 1 -6.5 3t-5.5 4l-6 6t-5 7q-2 2 -3.5 5.5
t-3.5 7.5q-1 5 -1.5 9t-1.5 9v6.5t1 5.5q2 8 2 13q2 3 3.5 5.5t3.5 5.5q2 2 3.5 5t3.5 5l4 -4q2 -1 3 -2t2 -1q1 -3 1 -7v-4t-2 -3q-4 -5 -4 -11q-1 -5 -1 -13t3 -17q3 -4 5.5 -7t4.5 -6q5 -5 14 -7q7 -4 17 -3q6 0 12 3l4 2t4 3t4.5 3t4.5 4q1 2 2.5 4t3.5 4q0 4 1 6.5
t2 5.5q1 4 1 11q-1 3 -1.5 6.5t-2.5 7.5q0 3 -5 10l-18 -1v-5v-5q0 -2 -3 -5q-1 -1 -1.5 -2t-2.5 -2t-6 -1h-6zM249 558l-9 -76l-118 12l8 75l19 -1l-6 -56l30 -4l5 46l20 -1l-5 -46l31 -3l5 57zM149 578l-17 5l22 89l19 -5l-10 -37l97 -23l-4 -18l-97 24zM190 714l-17 9
l41 82l16 -8l-15 -32l89 -45l-8 -17l-90 45zM377 832l-11 -16l-40 30l-35 -47l41 -30l-11 -15l-97 70l11 15l40 -29l35 47l-40 30l11 16zM441 893l-54 -52l-83 86l53 53l14 -15l-39 -39l20 -21l33 31l13 -14l-32 -30l21 -23l41 39zM499 1016l10 -17l-39 -24l24 -42l-14 -11
l-63 101l63 40l9 -16l-46 -30l17 -26zM547 1016q0 -7 6 -10q1 -3 9 -7q2 -1 5 -1h5q6 -1 11 1q7 3 10 7q5 5 6 10q1 2 1 10q0 7 -1 11l-27 67l17 8l29 -68q1 -5 1.5 -9t0.5 -9q0 -10 -3 -19q-2 -4 -4.5 -7.5t-7.5 -6.5q-2 -5 -5.5 -7t-8.5 -4t-9.5 -3t-9.5 -1q-8 0 -18 4
q-5 2 -8.5 4t-6.5 6q-7 7 -10 16l-30 66l18 8zM647 1003l-29 116l20 5l22 -97l49 11l4 -20zM716 1018l-12 119l20 2l10 -98l51 5v-20zM849 1023l-19 3l12 118l44 -5q6 0 14 -4q9 -5 11 -10q4 -3 7 -13q3 -7 2 -14q-2 -4 -2.5 -7.5t-2.5 -8.5q-6 -8 -9 -11q-4 -3 -14 -7
q-3 -1 -13 -1l-25 3zM880 1082h7q3 1 7 6q3 0 3 5q2 1 4 7q0 5 -1 7t-2 3.5t-1 2.5l-3 3t-3 2t-3.5 1t-2.5 1l-25 3l-5 -39zM936 1011l-19 5l31 113l43 -11q6 0 12 -6q5 -4 9 -10q4 -5 4 -13q1 -5 0.5 -8t-0.5 -7q-2 -5 -5 -10t-6 -7q-7 -5 -10 -5q-2 -2 -4.5 -2.5
t-4.5 -1.5l22 -57l-15 2q-2 1 -3.5 2.5t-3.5 2.5q-3 1 -5 8l-19 46l-14 4zM962 1105l-9 -31l24 -6q2 0 3 -0.5t3 0.5q2 0 3.5 0.5t3.5 0.5t2 1.5t1 2.5q4 4 4 6q1 3 1 7q-1 2 -1 3.5t-1 3.5q-1 1 -2.5 1.5t-1.5 2.5q-3 3 -6 3zM1022 1048q1 4 3.5 7.5t5.5 6.5q2 3 5 5.5
t6 4.5q3 3 6.5 4t8.5 3q4 3 14 3h15q9 -1 17 -6q7 -3 14 -8q3 -4 5.5 -7t4.5 -5q2 -3 3.5 -6.5t3.5 -7.5q1 -4 2 -7.5t1 -7.5v-7.5t-2 -8.5q-1 -4 -1.5 -7.5t-3.5 -7.5l-3.5 -7l-3.5 -7q-4 -3 -7 -5t-5 -6q-4 -2 -7 -4t-7 -4q-6 0 -16 -2q-12 0 -17 1t-15 5q-11 6 -18 15
q-8 9 -13 21q-2 6 -2 11v12q0 11 6 22zM1039 1041q-2 -3 -2.5 -6t-2.5 -6v-10q0 -2 1 -5t2 -5q1 -6 4 -10q2 -2 3.5 -4t3.5 -3q3 -4 9 -6q7 -4 11 -4h11q7 0 12 1q4 4 8 4q3 2 5 4t4 3q2 3 3 5.5t3 4.5q2 4 2.5 8t1.5 9q0 4 -0.5 7.5t-0.5 7.5q-2 4 -4.5 7.5t-4.5 5.5
q-7 7 -14 10q-2 2 -5 2.5t-6 1.5h-10q-7 0 -10 -2q-4 -2 -6 -2.5t-4 -1.5l-4 -4t-3 -4q-7 -5 -7 -8zM1208 1016l9 -8q1 -2 2 -3.5t3 -3.5q0 -5 -2 -8l-27 -86l82 38q1 1 8 1q4 0 6 -3l10 -8l-117 -54l-14 11zM1264 790l-46 56l90 76l48 -56l-14 -14l-37 44l-22 -19l28 -36
l-16 -11l-27 35l-24 -21l35 -42zM1279 765l-9 16l101 61l23 -37q2 -3 2.5 -6t2.5 -8q2 -7 -2 -12q-2 -9 -5 -13l-4.5 -4.5t-6.5 -5.5q-3 -1 -5 -1.5t-5 -1.5q-3 0 -5 -1t-5 1q-4 0 -10 2q-3 1 -5 2t-4 3l-23 -59l-9 13q-4 2 -4 7q0 7 3 9l20 48l-8 12zM1366 815l-29 -16
l13 -19q3 -5 4 -6q1 0 6 -3h6q2 0 5 3q2 0 6 4q0 2 1 3t1 3q1 1 1 6q-1 1 -1 2.5t-2 3.5zM1421 695q1 1 1 8q0 3 -1 5q-2 2 -2 6q-3 0 -5 4q-2 1 -5 1q-3 1 -5 0t-2.5 -2t-1.5 -2t-2 -1.5t-2 -2.5v-7v-10v-3v-2v-10q0 -2 -0.5 -4.5t-0.5 -4.5q-4 -14 -19 -21q-4 -2 -7.5 -3
t-8.5 1q-6 0 -14 2q-3 3 -6.5 5t-5.5 6q-3 2 -5 5.5t-4 7.5q-2 10 -2 15q0 3 2 13q0 3 3 5l2 4q0 4 2 4q4 2 3 2l4 -2q3 -5 5 -6q0 -2 0.5 -3t0.5 -2q0 -4 -3 -7v-1v-7q0 -5 2 -9q0 -1 1 -2.5t2 -3.5q2 -1 3.5 -2.5t3.5 -2.5q1 -1 2.5 -1t3.5 -2h4.5t4.5 2q2 0 5 3q2 4 2 5
q1 3 1 8v7v4v12q0 8 2 13q1 2 2.5 4.5t3.5 5.5q3 2 5 3.5t6 3.5q8 3 14 2q6 0 12 -4q3 -2 6.5 -3.5t5.5 -5.5q3 -3 6 -11q2 -6 2 -10q0 -6 -1 -10q0 -4 -3 -10q-1 -2 -1 -4t-2 -4l-6 4q-3 1 -4 2.5t-3 3.5l-1.5 4.5t0.5 4.5zM1349 607l-5 18l114 34l5 -19zM1412 607h19
q6 0 14 -4q4 -1 7.5 -3.5t5.5 -4.5q3 -2 6.5 -4.5t5.5 -6.5q4 -8 8 -12q2 -8 4 -18v-15q-2 -10 -4 -15t-4 -8.5t-4 -6.5l-10 -10q-4 -4 -7.5 -5t-6.5 -3q-7 -4 -15 -4q-10 -1 -19 0q-8 0 -15 4q-2 2 -5.5 3t-7.5 4q-3 2 -5.5 5.5t-4.5 5.5q-6 5 -8 15q-2 3 -3.5 6.5
t-1.5 8.5q-1 13 1 24q5 12 10 20q7 9 18 16q5 3 11 5.5t11 2.5zM1415 588q-7 0 -10 -4q-5 -1 -10 -5q-4 -1 -6 -7q-5 -5 -5 -9q-2 -2 -2.5 -5t-1.5 -5v-11q2 -8 4 -11q0 -6 5 -9q1 -3 3 -5t3 -4q3 -1 5 -2.5t5 -2.5q2 -2 5 -2h5q5 -3 11 0q11 0 17 5q5 2 12 11q6 8 6 15
q3 7 1 16q0 6 -2 10q-2 3 -3 5l-2 4l-4 4t-4 3q-5 4 -10 5q-3 4 -11 4q-4 2 -11 0zM1362 371l2 16l96 60l-91 6l1 19l118 -9l-1 -12q0 -5 -1 -8q-3 -3 -4 -5l-81 -51l82 -6l-2 -19z" />
    <glyph glyph-name="dollar" unicode="$" 
d="M807 34q82 0 155 30t131 79h-570q57 -49 129 -79t155 -30zM571 189h564q45 55 70 124t25 147q0 80 -26.5 150t-80.5 139zM807 977q-104 0 -197.5 -39.5t-164 -109t-112.5 -164t-42 -204.5q0 -103 39.5 -196t108.5 -163.5t163.5 -112.5t204.5 -42q35 0 70 5.5t68 15.5
q78 23 146.5 68t119.5 109t80.5 144t29.5 172q0 101 -38.5 194.5t-107 165t-163 114.5t-205.5 43zM807 -14q-100 0 -186 38.5t-149.5 103.5t-99.5 151t-36 181q0 94 35 179.5t98 151t149.5 104t188.5 38.5q67 0 124 -17q72 -19 135 -60t110.5 -100t75 -134t27.5 -162
q0 -98 -37 -184.5t-101.5 -151t-150.5 -101.5t-183 -37zM478 730q-46 -55 -71.5 -122.5t-25.5 -147.5q0 -82 28.5 -155t77.5 -131l555 556h-564zM807 887q-83 0 -155.5 -29t-130.5 -80h566q-54 50 -126 79.5t-154 29.5zM957 -83l-90 -16l4 -26l34 6l16 -89l26 5l-16 89l31 6
zM1058 -117q-2 6 -9 8l-11 5h-15h-7h-9h-2v1q-3 3 -3 4l-2 1q2 1 2 4q0 1 1 1h2q0 1 5 1v3h1h5h3q4 0 4 1q4 0 8 1q0 2 1 3t1 2l5 10l-7 3q-8 4 -12 4q-2 0 -4.5 1t-4.5 1q-4 0 -6 -1t-4 -1l-13 -7q-2 -2 -4 -4.5t-3 -6.5q-7 -6 -7 -14v-5t2 -7q3 -8 10 -13q1 -1 3.5 -2.5
t4.5 -3.5q3 0 6.5 -1t5.5 -1h13h9h2q2 0 4 -2q3 0 3 -2h3v-5q0 -2 -0.5 -3t-0.5 -2v-1q-2 0 -3 -2.5t-2 -2.5q-2 -2 -6 -2q0 -1 -2 -1h-3q-2 0 -3 0.5t-3 0.5h-6h-8l-4 -2q-1 0 -1 -1.5t-1 -1.5l-5 -8q1 -4 3 -5.5t4 -4.5q3 -1 6.5 -2t6.5 -1q8 -3 12 -2q3 0 7 1t8 1
q3 2 6.5 3.5t7.5 4.5q4 4 5.5 6t4.5 7q1 4 3 7t2 8q0 4 -0.5 7.5t-3.5 6.5q0 8 -5 11zM1108 -122q-2 3 -4 3t-3.5 1t-3.5 1q-1 -2 -6 -2l-7 -4q-1 -1 -1 -3v-2q-2 -2 -2 -4v-2q0 -3 1 -4q0 -1 1 -1q0 -6 3 -6q2 -5 7 -5h6q5 0 7 2q1 2 3 2.5t2 2.5v2q0 2 2 2l3 3v2q0 6 -5 6
q0 6 -3 6zM831 -175q-1 0 -1 4q0 1 -1.5 1t-1.5 1q0 4 -1 4l-41 60q0 1 -2 2q-2 3 -9 3h-9h-14l3 -119l27 1v79l51 -79h25v118h-30zM584 -85l48 -18l8 25l-72 26l-42 -105l26 -12l15 41l38 -15l10 26l-37 14zM733 -114l-9 11q-3 3 -6.5 5t-7.5 4t-7 2.5t-8 2.5q-5 1 -8.5 1
h-7.5q-10 0 -14 -4q-4 -1 -7.5 -2t-7.5 -4l-11 -10q-4 -8 -10 -11q-2 -5 -3.5 -8.5t-1.5 -6.5v-18l3 -15l6 -13l11 -11q3 -4 7 -5.5t6 -3.5q7 -4 15 -4q5 -1 8.5 -1h7.5q5 0 13 2q4 2 8.5 3t6.5 4q6 2 12 10l8 11q4 7 7 17v15q0 3 -1 6.5t-3 8.5q-1 5 -2.5 7.5t-3.5 6.5z
M715 -153q0 -3 -1.5 -6.5t-3.5 -5.5q-3 -4 -4.5 -5.5l-4.5 -4.5q-3 -1 -5.5 -2t-6.5 -1q-6 -3 -11 0q-4 0 -7.5 1t-5.5 2l-8 10q-2 2 -2.5 5.5t-0.5 6.5q-3 5 0 14q0 6 5 11l6 9l13 5h11l12 -5l9 -9q2 -3 3.5 -5t1.5 -6q2 -8 0 -14zM1294 186q-1 -2 -2.5 -4t-1.5 -6
q0 -2 1.5 -4t2.5 -4l40 -58l-69 10h-10l-9 -6l-8 -16l96 -65l16 22l-46 33l60 -13l11 20l-33 50l47 -30l15 24l-98 64zM1281 59l-13 13l-15 3q-4 3 -15 3q-4 0 -7.5 -0.5t-7.5 -2.5l-13 -3q-4 -3 -8 -6.5t-7 -6.5l-4 -6t-4 -5q-3 -4 -4 -7.5t-3 -7.5q0 -4 -1 -7.5t-1 -7.5
v-7t2 -8l4 -14l10 -12l14 -10q4 -1 7 -3.5t8 -2.5q4 0 7.5 -1.5t7.5 -1.5q2 0 6 1.5t9 1.5q2 0 5.5 2.5t7.5 3.5q7 3 13 10l10 12q1 2 3 5.5t2 8.5q1 4 1 14v16l-6 12q-2 4 -4 7.5t-4 6.5zM1268 6q-4 -9 -8 -10q-7 -7 -10 -8q-3 -2 -6.5 -2h-5.5q-4 0 -7 1t-5 1l-11 8
q-4 4 -7 11q-1 4 -1 11q0 8 1 11q3 8 7 12l11 8q3 0 6 0.5t6 0.5q4 0 12 -2q2 -2 4.5 -3.5t5.5 -5.5q3 -1 4.5 -4t3.5 -6t2 -12v-5.5t-2 -5.5zM1194 -54l-7 -4q-2 0 -3 -2.5t-1 -4.5l-5 -9l-9 -6q-4 -2 -6 -3.5t-5 -1.5q-7 -3 -13 0q-2 2 -5 2.5t-6 2.5q-6 4 -7 11
q-5 2 -5 11q-4 3 0 14q0 2 0.5 4t1.5 7l4 4t5 3q7 4 9 4q3 1 10 1q2 0 10 4q2 3 5 5l2 6v9q-3 4 -12 4h-13l-14 -5l-11 -5q-2 -2 -5.5 -4.5t-6.5 -6.5q-2 -2 -4 -5.5t-4 -7.5l-6 -15v-16q0 -4 1.5 -7t1.5 -7l6 -15q3 -4 6 -6t5 -5l14 -10l12 -2q5 -2 16 -2q4 0 7 1t7 2
q5 1 8.5 3.5t6.5 5.5l5 2.5t5 4.5q3 1 5 4t5 6l4 14q4 4 4 13l-12 2h-6zM504 -14l-102 -74l16 -9q0 -1 2 -1h3q2 0 2.5 -0.5t2.5 0.5h5q3 0 4 1l11 9l39 -22l-2 -15v-5q0 -2 1 -3q0 -1 1 -1v-3q0 -2 2 -2l4 -3l16 -10l17 125zM493 -56v-2v-3l-2 -22l-18 11l16 14h2q2 0 2 1
v1v1h1q1 1 2 1zM463 -19l17 20l-69 59l-20 -21l27 -21l-58 -67l20 -18l60 69zM243 137l82 -10q2 0 6 1q2 0 2.5 0.5t2.5 0.5l11 8l-45 77l-23 -14l26 -44l-82 9q-2 0 -5.5 -0.5t-7.5 -3.5l-10 -5l45 -78l23 14zM342 29l22 19l-27 30l14 11l31 -39l21 18l-49 60l-90 -76
l51 -58l19 18l-32 37l17 11zM176 468l50 3q2 -2 4.5 -4t3.5 -4q2 -2 3.5 -5t1.5 -5q1 -7 4 -12q0 -3 0.5 -6t0.5 -5q0 -8 -0.5 -14t-3.5 -11q-1 -7 -4 -12t-7 -10q-7 -9 -19 -13q-11 -7 -22 -7h-18q-4 2 -7.5 3.5t-7.5 3.5q-4 1 -6.5 3t-5.5 4l-6 6t-5 7q-2 2 -3.5 5.5
t-3.5 7.5q-1 5 -1.5 9t-1.5 9v6.5t1 5.5q2 8 2 13q2 3 3.5 5.5t3.5 5.5q2 2 3.5 5t3.5 5l4 -4q2 -1 3 -2t2 -1q1 -3 1 -7v-4t-2 -3q-4 -5 -4 -11q-1 -5 -1 -13t3 -17q3 -4 5.5 -7t4.5 -6q5 -5 14 -7q7 -4 17 -3q6 0 12 3l4 2t4 3t4.5 3t4.5 4q1 2 2.5 4t3.5 4q0 4 1 6.5
t2 5.5q1 4 1 11q-1 3 -1.5 6.5t-2.5 7.5q0 3 -5 10l-18 -1v-5v-5q0 -2 -3 -5q-1 -1 -1.5 -2t-2.5 -2t-6 -1h-6zM249 558l-9 -76l-118 12l8 75l19 -1l-6 -56l30 -4l5 46l20 -1l-5 -46l31 -3l5 57zM149 578l-17 5l22 89l19 -5l-10 -37l97 -23l-4 -18l-97 24zM190 714l-17 9
l41 82l16 -8l-15 -32l89 -45l-8 -17l-90 45zM377 832l-11 -16l-40 30l-35 -47l41 -30l-11 -15l-97 70l11 15l40 -29l35 47l-40 30l11 16zM441 893l-54 -52l-83 86l53 53l14 -15l-39 -39l20 -21l33 31l13 -14l-32 -30l21 -23l41 39zM499 1016l10 -17l-39 -24l24 -42l-14 -11
l-63 101l63 40l9 -16l-46 -30l17 -26zM547 1016q0 -7 6 -10q1 -3 9 -7q2 -1 5 -1h5q6 -1 11 1q7 3 10 7q5 5 6 10q1 2 1 10q0 7 -1 11l-27 67l17 8l29 -68q1 -5 1.5 -9t0.5 -9q0 -10 -3 -19q-2 -4 -4.5 -7.5t-7.5 -6.5q-2 -5 -5.5 -7t-8.5 -4t-9.5 -3t-9.5 -1q-8 0 -18 4
q-5 2 -8.5 4t-6.5 6q-7 7 -10 16l-30 66l18 8zM647 1003l-29 116l20 5l22 -97l49 11l4 -20zM716 1018l-12 119l20 2l10 -98l51 5v-20zM849 1023l-19 3l12 118l44 -5q6 0 14 -4q9 -5 11 -10q4 -3 7 -13q3 -7 2 -14q-2 -4 -2.5 -7.5t-2.5 -8.5q-6 -8 -9 -11q-4 -3 -14 -7
q-3 -1 -13 -1l-25 3zM880 1082h7q3 1 7 6q3 0 3 5q2 1 4 7q0 5 -1 7t-2 3.5t-1 2.5l-3 3t-3 2t-3.5 1t-2.5 1l-25 3l-5 -39zM936 1011l-19 5l31 113l43 -11q6 0 12 -6q5 -4 9 -10q4 -5 4 -13q1 -5 0.5 -8t-0.5 -7q-2 -5 -5 -10t-6 -7q-7 -5 -10 -5q-2 -2 -4.5 -2.5
t-4.5 -1.5l22 -57l-15 2q-2 1 -3.5 2.5t-3.5 2.5q-3 1 -5 8l-19 46l-14 4zM962 1105l-9 -31l24 -6q2 0 3 -0.5t3 0.5q2 0 3.5 0.5t3.5 0.5t2 1.5t1 2.5q4 4 4 6q1 3 1 7q-1 2 -1 3.5t-1 3.5q-1 1 -2.5 1.5t-1.5 2.5q-3 3 -6 3zM1022 1048q1 4 3.5 7.5t5.5 6.5q2 3 5 5.5
t6 4.5q3 3 6.5 4t8.5 3q4 3 14 3h15q9 -1 17 -6q7 -3 14 -8q3 -4 5.5 -7t4.5 -5q2 -3 3.5 -6.5t3.5 -7.5q1 -4 2 -7.5t1 -7.5v-7.5t-2 -8.5q-1 -4 -1.5 -7.5t-3.5 -7.5l-3.5 -7l-3.5 -7q-4 -3 -7 -5t-5 -6q-4 -2 -7 -4t-7 -4q-6 0 -16 -2q-12 0 -17 1t-15 5q-11 6 -18 15
q-8 9 -13 21q-2 6 -2 11v12q0 11 6 22zM1039 1041q-2 -3 -2.5 -6t-2.5 -6v-10q0 -2 1 -5t2 -5q1 -6 4 -10q2 -2 3.5 -4t3.5 -3q3 -4 9 -6q7 -4 11 -4h11q7 0 12 1q4 4 8 4q3 2 5 4t4 3q2 3 3 5.5t3 4.5q2 4 2.5 8t1.5 9q0 4 -0.5 7.5t-0.5 7.5q-2 4 -4.5 7.5t-4.5 5.5
q-7 7 -14 10q-2 2 -5 2.5t-6 1.5h-10q-7 0 -10 -2q-4 -2 -6 -2.5t-4 -1.5l-4 -4t-3 -4q-7 -5 -7 -8zM1208 1016l9 -8q1 -2 2 -3.5t3 -3.5q0 -5 -2 -8l-27 -86l82 38q1 1 8 1q4 0 6 -3l10 -8l-117 -54l-14 11zM1264 790l-46 56l90 76l48 -56l-14 -14l-37 44l-22 -19l28 -36
l-16 -11l-27 35l-24 -21l35 -42zM1279 765l-9 16l101 61l23 -37q2 -3 2.5 -6t2.5 -8q2 -7 -2 -12q-2 -9 -5 -13l-4.5 -4.5t-6.5 -5.5q-3 -1 -5 -1.5t-5 -1.5q-3 0 -5 -1t-5 1q-4 0 -10 2q-3 1 -5 2t-4 3l-23 -59l-9 13q-4 2 -4 7q0 7 3 9l20 48l-8 12zM1366 815l-29 -16
l13 -19q3 -5 4 -6q1 0 6 -3h6q2 0 5 3q2 0 6 4q0 2 1 3t1 3q1 1 1 6q-1 1 -1 2.5t-2 3.5zM1421 695q1 1 1 8q0 3 -1 5q-2 2 -2 6q-3 0 -5 4q-2 1 -5 1q-3 1 -5 0t-2.5 -2t-1.5 -2t-2 -1.5t-2 -2.5v-7v-10v-3v-2v-10q0 -2 -0.5 -4.5t-0.5 -4.5q-4 -14 -19 -21q-4 -2 -7.5 -3
t-8.5 1q-6 0 -14 2q-3 3 -6.5 5t-5.5 6q-3 2 -5 5.5t-4 7.5q-2 10 -2 15q0 3 2 13q0 3 3 5l2 4q0 4 2 4q4 2 3 2l4 -2q3 -5 5 -6q0 -2 0.5 -3t0.5 -2q0 -4 -3 -7v-1v-7q0 -5 2 -9q0 -1 1 -2.5t2 -3.5q2 -1 3.5 -2.5t3.5 -2.5q1 -1 2.5 -1t3.5 -2h4.5t4.5 2q2 0 5 3q2 4 2 5
q1 3 1 8v7v4v12q0 8 2 13q1 2 2.5 4.5t3.5 5.5q3 2 5 3.5t6 3.5q8 3 14 2q6 0 12 -4q3 -2 6.5 -3.5t5.5 -5.5q3 -3 6 -11q2 -6 2 -10q0 -6 -1 -10q0 -4 -3 -10q-1 -2 -1 -4t-2 -4l-6 4q-3 1 -4 2.5t-3 3.5l-1.5 4.5t0.5 4.5zM1349 607l-5 18l114 34l5 -19zM1412 607h19
q6 0 14 -4q4 -1 7.5 -3.5t5.5 -4.5q3 -2 6.5 -4.5t5.5 -6.5q4 -8 8 -12q2 -8 4 -18v-15q-2 -10 -4 -15t-4 -8.5t-4 -6.5l-10 -10q-4 -4 -7.5 -5t-6.5 -3q-7 -4 -15 -4q-10 -1 -19 0q-8 0 -15 4q-2 2 -5.5 3t-7.5 4q-3 2 -5.5 5.5t-4.5 5.5q-6 5 -8 15q-2 3 -3.5 6.5
t-1.5 8.5q-1 13 1 24q5 12 10 20q7 9 18 16q5 3 11 5.5t11 2.5zM1415 588q-7 0 -10 -4q-5 -1 -10 -5q-4 -1 -6 -7q-5 -5 -5 -9q-2 -2 -2.5 -5t-1.5 -5v-11q2 -8 4 -11q0 -6 5 -9q1 -3 3 -5t3 -4q3 -1 5 -2.5t5 -2.5q2 -2 5 -2h5q5 -3 11 0q11 0 17 5q5 2 12 11q6 8 6 15
q3 7 1 16q0 6 -2 10q-2 3 -3 5l-2 4l-4 4t-4 3q-5 4 -10 5q-3 4 -11 4q-4 2 -11 0zM1362 371l2 16l96 60l-91 6l1 19l118 -9l-1 -12q0 -5 -1 -8q-3 -3 -4 -5l-81 -51l82 -6l-2 -19z" />
    <glyph glyph-name="percent" unicode="%" horiz-adv-x="1520" 
d="M1225 609q48 1 79.5 -13t50 -38t26 -56t7.5 -68q0 -50 -14.5 -106.5t-41.5 -111t-65.5 -104.5t-86.5 -88.5t-104 -61t-118 -22.5q-32 0 -78.5 14t-89 41.5t-72.5 68t-30 94.5q0 66 23.5 125t64 108.5t94 89t113.5 67.5t122 43.5t120 17.5zM1125 424q-39 0 -73 -26
t-59.5 -61.5t-40 -72t-14.5 -56.5q0 -26 13.5 -39.5t37.5 -13.5q34 0 65.5 15t56 40.5t39.5 59t15 71.5q0 34 -10 58.5t-30 24.5zM1269 895q-61 -52 -137.5 -115t-160.5 -133.5t-172.5 -146.5t-174 -154.5t-164 -156.5t-143.5 -153q-23 -27 -55.5 -41.5t-61.5 -14.5
q-23 0 -38.5 10.5t-15.5 33.5v9t2 9q5 20 33 61.5t73 97.5t104 124t125.5 140.5t137.5 146t140 142t133.5 128t117.5 103.5t91.5 69t56.5 25q8 0 19 -12.5t23.5 -31t24 -40.5t21 -42t15.5 -35.5t6 -20.5v-2zM834 1045q0 -48 -23 -99.5t-61 -100.5t-88 -93.5t-104 -78
t-108.5 -53t-102.5 -19.5t-86 20.5t-65 54.5t-41 79t-14 95q0 52 18 102t49 95t73 83t89 65.5t97 43t98 15.5q45 0 92.5 -16t86.5 -44t64.5 -66t25.5 -83zM565 1042q-27 0 -61.5 -12.5t-66 -34.5t-53 -51.5t-21.5 -63.5q0 -29 26.5 -45t74.5 -16q25 0 52 18.5t49.5 45.5
t36.5 57.5t14 54.5q0 21 -12 34t-39 13z" />
    <glyph glyph-name="ampersand" unicode="&#x26;" 
d="M807 34q82 0 155 30t131 79h-570q57 -49 129 -79t155 -30zM571 189h564q45 55 70 124t25 147q0 80 -26.5 150t-80.5 139zM807 977q-104 0 -197.5 -39.5t-164 -109t-112.5 -164t-42 -204.5q0 -103 39.5 -196t108.5 -163.5t163.5 -112.5t204.5 -42q35 0 70 5.5t68 15.5
q78 23 146.5 68t119.5 109t80.5 144t29.5 172q0 101 -38.5 194.5t-107 165t-163 114.5t-205.5 43zM807 -14q-100 0 -186 38.5t-149.5 103.5t-99.5 151t-36 181q0 94 35 179.5t98 151t149.5 104t188.5 38.5q67 0 124 -17q72 -19 135 -60t110.5 -100t75 -134t27.5 -162
q0 -98 -37 -184.5t-101.5 -151t-150.5 -101.5t-183 -37zM478 730q-46 -55 -71.5 -122.5t-25.5 -147.5q0 -82 28.5 -155t77.5 -131l555 556h-564zM807 887q-83 0 -155.5 -29t-130.5 -80h566q-54 50 -126 79.5t-154 29.5zM957 -83l-90 -16l4 -26l34 6l16 -89l26 5l-16 89l31 6
zM1058 -117q-2 6 -9 8l-11 5h-15h-7h-9h-2v1q-3 3 -3 4l-2 1q2 1 2 4q0 1 1 1h2q0 1 5 1v3h1h5h3q4 0 4 1q4 0 8 1q0 2 1 3t1 2l5 10l-7 3q-8 4 -12 4q-2 0 -4.5 1t-4.5 1q-4 0 -6 -1t-4 -1l-13 -7q-2 -2 -4 -4.5t-3 -6.5q-7 -6 -7 -14v-5t2 -7q3 -8 10 -13q1 -1 3.5 -2.5
t4.5 -3.5q3 0 6.5 -1t5.5 -1h13h9h2q2 0 4 -2q3 0 3 -2h3v-5q0 -2 -0.5 -3t-0.5 -2v-1q-2 0 -3 -2.5t-2 -2.5q-2 -2 -6 -2q0 -1 -2 -1h-3q-2 0 -3 0.5t-3 0.5h-6h-8l-4 -2q-1 0 -1 -1.5t-1 -1.5l-5 -8q1 -4 3 -5.5t4 -4.5q3 -1 6.5 -2t6.5 -1q8 -3 12 -2q3 0 7 1t8 1
q3 2 6.5 3.5t7.5 4.5q4 4 5.5 6t4.5 7q1 4 3 7t2 8q0 4 -0.5 7.5t-3.5 6.5q0 8 -5 11zM1108 -122q-2 3 -4 3t-3.5 1t-3.5 1q-1 -2 -6 -2l-7 -4q-1 -1 -1 -3v-2q-2 -2 -2 -4v-2q0 -3 1 -4q0 -1 1 -1q0 -6 3 -6q2 -5 7 -5h6q5 0 7 2q1 2 3 2.5t2 2.5v2q0 2 2 2l3 3v2q0 6 -5 6
q0 6 -3 6zM831 -175q-1 0 -1 4q0 1 -1.5 1t-1.5 1q0 4 -1 4l-41 60q0 1 -2 2q-2 3 -9 3h-9h-14l3 -119l27 1v79l51 -79h25v118h-30zM584 -85l48 -18l8 25l-72 26l-42 -105l26 -12l15 41l38 -15l10 26l-37 14zM733 -114l-9 11q-3 3 -6.5 5t-7.5 4t-7 2.5t-8 2.5q-5 1 -8.5 1
h-7.5q-10 0 -14 -4q-4 -1 -7.5 -2t-7.5 -4l-11 -10q-4 -8 -10 -11q-2 -5 -3.5 -8.5t-1.5 -6.5v-18l3 -15l6 -13l11 -11q3 -4 7 -5.5t6 -3.5q7 -4 15 -4q5 -1 8.5 -1h7.5q5 0 13 2q4 2 8.5 3t6.5 4q6 2 12 10l8 11q4 7 7 17v15q0 3 -1 6.5t-3 8.5q-1 5 -2.5 7.5t-3.5 6.5z
M715 -153q0 -3 -1.5 -6.5t-3.5 -5.5q-3 -4 -4.5 -5.5l-4.5 -4.5q-3 -1 -5.5 -2t-6.5 -1q-6 -3 -11 0q-4 0 -7.5 1t-5.5 2l-8 10q-2 2 -2.5 5.5t-0.5 6.5q-3 5 0 14q0 6 5 11l6 9l13 5h11l12 -5l9 -9q2 -3 3.5 -5t1.5 -6q2 -8 0 -14zM1294 186q-1 -2 -2.5 -4t-1.5 -6
q0 -2 1.5 -4t2.5 -4l40 -58l-69 10h-10l-9 -6l-8 -16l96 -65l16 22l-46 33l60 -13l11 20l-33 50l47 -30l15 24l-98 64zM1281 59l-13 13l-15 3q-4 3 -15 3q-4 0 -7.5 -0.5t-7.5 -2.5l-13 -3q-4 -3 -8 -6.5t-7 -6.5l-4 -6t-4 -5q-3 -4 -4 -7.5t-3 -7.5q0 -4 -1 -7.5t-1 -7.5
v-7t2 -8l4 -14l10 -12l14 -10q4 -1 7 -3.5t8 -2.5q4 0 7.5 -1.5t7.5 -1.5q2 0 6 1.5t9 1.5q2 0 5.5 2.5t7.5 3.5q7 3 13 10l10 12q1 2 3 5.5t2 8.5q1 4 1 14v16l-6 12q-2 4 -4 7.5t-4 6.5zM1268 6q-4 -9 -8 -10q-7 -7 -10 -8q-3 -2 -6.5 -2h-5.5q-4 0 -7 1t-5 1l-11 8
q-4 4 -7 11q-1 4 -1 11q0 8 1 11q3 8 7 12l11 8q3 0 6 0.5t6 0.5q4 0 12 -2q2 -2 4.5 -3.5t5.5 -5.5q3 -1 4.5 -4t3.5 -6t2 -12v-5.5t-2 -5.5zM1194 -54l-7 -4q-2 0 -3 -2.5t-1 -4.5l-5 -9l-9 -6q-4 -2 -6 -3.5t-5 -1.5q-7 -3 -13 0q-2 2 -5 2.5t-6 2.5q-6 4 -7 11
q-5 2 -5 11q-4 3 0 14q0 2 0.5 4t1.5 7l4 4t5 3q7 4 9 4q3 1 10 1q2 0 10 4q2 3 5 5l2 6v9q-3 4 -12 4h-13l-14 -5l-11 -5q-2 -2 -5.5 -4.5t-6.5 -6.5q-2 -2 -4 -5.5t-4 -7.5l-6 -15v-16q0 -4 1.5 -7t1.5 -7l6 -15q3 -4 6 -6t5 -5l14 -10l12 -2q5 -2 16 -2q4 0 7 1t7 2
q5 1 8.5 3.5t6.5 5.5l5 2.5t5 4.5q3 1 5 4t5 6l4 14q4 4 4 13l-12 2h-6zM504 -14l-102 -74l16 -9q0 -1 2 -1h3q2 0 2.5 -0.5t2.5 0.5h5q3 0 4 1l11 9l39 -22l-2 -15v-5q0 -2 1 -3q0 -1 1 -1v-3q0 -2 2 -2l4 -3l16 -10l17 125zM493 -56v-2v-3l-2 -22l-18 11l16 14h2q2 0 2 1
v1v1h1q1 1 2 1zM463 -19l17 20l-69 59l-20 -21l27 -21l-58 -67l20 -18l60 69zM243 137l82 -10q2 0 6 1q2 0 2.5 0.5t2.5 0.5l11 8l-45 77l-23 -14l26 -44l-82 9q-2 0 -5.5 -0.5t-7.5 -3.5l-10 -5l45 -78l23 14zM342 29l22 19l-27 30l14 11l31 -39l21 18l-49 60l-90 -76
l51 -58l19 18l-32 37l17 11zM176 468l50 3q2 -2 4.5 -4t3.5 -4q2 -2 3.5 -5t1.5 -5q1 -7 4 -12q0 -3 0.5 -6t0.5 -5q0 -8 -0.5 -14t-3.5 -11q-1 -7 -4 -12t-7 -10q-7 -9 -19 -13q-11 -7 -22 -7h-18q-4 2 -7.5 3.5t-7.5 3.5q-4 1 -6.5 3t-5.5 4l-6 6t-5 7q-2 2 -3.5 5.5
t-3.5 7.5q-1 5 -1.5 9t-1.5 9v6.5t1 5.5q2 8 2 13q2 3 3.5 5.5t3.5 5.5q2 2 3.5 5t3.5 5l4 -4q2 -1 3 -2t2 -1q1 -3 1 -7v-4t-2 -3q-4 -5 -4 -11q-1 -5 -1 -13t3 -17q3 -4 5.5 -7t4.5 -6q5 -5 14 -7q7 -4 17 -3q6 0 12 3l4 2t4 3t4.5 3t4.5 4q1 2 2.5 4t3.5 4q0 4 1 6.5
t2 5.5q1 4 1 11q-1 3 -1.5 6.5t-2.5 7.5q0 3 -5 10l-18 -1v-5v-5q0 -2 -3 -5q-1 -1 -1.5 -2t-2.5 -2t-6 -1h-6zM249 558l-9 -76l-118 12l8 75l19 -1l-6 -56l30 -4l5 46l20 -1l-5 -46l31 -3l5 57zM149 578l-17 5l22 89l19 -5l-10 -37l97 -23l-4 -18l-97 24zM190 714l-17 9
l41 82l16 -8l-15 -32l89 -45l-8 -17l-90 45zM377 832l-11 -16l-40 30l-35 -47l41 -30l-11 -15l-97 70l11 15l40 -29l35 47l-40 30l11 16zM441 893l-54 -52l-83 86l53 53l14 -15l-39 -39l20 -21l33 31l13 -14l-32 -30l21 -23l41 39zM499 1016l10 -17l-39 -24l24 -42l-14 -11
l-63 101l63 40l9 -16l-46 -30l17 -26zM547 1016q0 -7 6 -10q1 -3 9 -7q2 -1 5 -1h5q6 -1 11 1q7 3 10 7q5 5 6 10q1 2 1 10q0 7 -1 11l-27 67l17 8l29 -68q1 -5 1.5 -9t0.5 -9q0 -10 -3 -19q-2 -4 -4.5 -7.5t-7.5 -6.5q-2 -5 -5.5 -7t-8.5 -4t-9.5 -3t-9.5 -1q-8 0 -18 4
q-5 2 -8.5 4t-6.5 6q-7 7 -10 16l-30 66l18 8zM647 1003l-29 116l20 5l22 -97l49 11l4 -20zM716 1018l-12 119l20 2l10 -98l51 5v-20zM849 1023l-19 3l12 118l44 -5q6 0 14 -4q9 -5 11 -10q4 -3 7 -13q3 -7 2 -14q-2 -4 -2.5 -7.5t-2.5 -8.5q-6 -8 -9 -11q-4 -3 -14 -7
q-3 -1 -13 -1l-25 3zM880 1082h7q3 1 7 6q3 0 3 5q2 1 4 7q0 5 -1 7t-2 3.5t-1 2.5l-3 3t-3 2t-3.5 1t-2.5 1l-25 3l-5 -39zM936 1011l-19 5l31 113l43 -11q6 0 12 -6q5 -4 9 -10q4 -5 4 -13q1 -5 0.5 -8t-0.5 -7q-2 -5 -5 -10t-6 -7q-7 -5 -10 -5q-2 -2 -4.5 -2.5
t-4.5 -1.5l22 -57l-15 2q-2 1 -3.5 2.5t-3.5 2.5q-3 1 -5 8l-19 46l-14 4zM962 1105l-9 -31l24 -6q2 0 3 -0.5t3 0.5q2 0 3.5 0.5t3.5 0.5t2 1.5t1 2.5q4 4 4 6q1 3 1 7q-1 2 -1 3.5t-1 3.5q-1 1 -2.5 1.5t-1.5 2.5q-3 3 -6 3zM1022 1048q1 4 3.5 7.5t5.5 6.5q2 3 5 5.5
t6 4.5q3 3 6.5 4t8.5 3q4 3 14 3h15q9 -1 17 -6q7 -3 14 -8q3 -4 5.5 -7t4.5 -5q2 -3 3.5 -6.5t3.5 -7.5q1 -4 2 -7.5t1 -7.5v-7.5t-2 -8.5q-1 -4 -1.5 -7.5t-3.5 -7.5l-3.5 -7l-3.5 -7q-4 -3 -7 -5t-5 -6q-4 -2 -7 -4t-7 -4q-6 0 -16 -2q-12 0 -17 1t-15 5q-11 6 -18 15
q-8 9 -13 21q-2 6 -2 11v12q0 11 6 22zM1039 1041q-2 -3 -2.5 -6t-2.5 -6v-10q0 -2 1 -5t2 -5q1 -6 4 -10q2 -2 3.5 -4t3.5 -3q3 -4 9 -6q7 -4 11 -4h11q7 0 12 1q4 4 8 4q3 2 5 4t4 3q2 3 3 5.5t3 4.5q2 4 2.5 8t1.5 9q0 4 -0.5 7.5t-0.5 7.5q-2 4 -4.5 7.5t-4.5 5.5
q-7 7 -14 10q-2 2 -5 2.5t-6 1.5h-10q-7 0 -10 -2q-4 -2 -6 -2.5t-4 -1.5l-4 -4t-3 -4q-7 -5 -7 -8zM1208 1016l9 -8q1 -2 2 -3.5t3 -3.5q0 -5 -2 -8l-27 -86l82 38q1 1 8 1q4 0 6 -3l10 -8l-117 -54l-14 11zM1264 790l-46 56l90 76l48 -56l-14 -14l-37 44l-22 -19l28 -36
l-16 -11l-27 35l-24 -21l35 -42zM1279 765l-9 16l101 61l23 -37q2 -3 2.5 -6t2.5 -8q2 -7 -2 -12q-2 -9 -5 -13l-4.5 -4.5t-6.5 -5.5q-3 -1 -5 -1.5t-5 -1.5q-3 0 -5 -1t-5 1q-4 0 -10 2q-3 1 -5 2t-4 3l-23 -59l-9 13q-4 2 -4 7q0 7 3 9l20 48l-8 12zM1366 815l-29 -16
l13 -19q3 -5 4 -6q1 0 6 -3h6q2 0 5 3q2 0 6 4q0 2 1 3t1 3q1 1 1 6q-1 1 -1 2.5t-2 3.5zM1421 695q1 1 1 8q0 3 -1 5q-2 2 -2 6q-3 0 -5 4q-2 1 -5 1q-3 1 -5 0t-2.5 -2t-1.5 -2t-2 -1.5t-2 -2.5v-7v-10v-3v-2v-10q0 -2 -0.5 -4.5t-0.5 -4.5q-4 -14 -19 -21q-4 -2 -7.5 -3
t-8.5 1q-6 0 -14 2q-3 3 -6.5 5t-5.5 6q-3 2 -5 5.5t-4 7.5q-2 10 -2 15q0 3 2 13q0 3 3 5l2 4q0 4 2 4q4 2 3 2l4 -2q3 -5 5 -6q0 -2 0.5 -3t0.5 -2q0 -4 -3 -7v-1v-7q0 -5 2 -9q0 -1 1 -2.5t2 -3.5q2 -1 3.5 -2.5t3.5 -2.5q1 -1 2.5 -1t3.5 -2h4.5t4.5 2q2 0 5 3q2 4 2 5
q1 3 1 8v7v4v12q0 8 2 13q1 2 2.5 4.5t3.5 5.5q3 2 5 3.5t6 3.5q8 3 14 2q6 0 12 -4q3 -2 6.5 -3.5t5.5 -5.5q3 -3 6 -11q2 -6 2 -10q0 -6 -1 -10q0 -4 -3 -10q-1 -2 -1 -4t-2 -4l-6 4q-3 1 -4 2.5t-3 3.5l-1.5 4.5t0.5 4.5zM1349 607l-5 18l114 34l5 -19zM1412 607h19
q6 0 14 -4q4 -1 7.5 -3.5t5.5 -4.5q3 -2 6.5 -4.5t5.5 -6.5q4 -8 8 -12q2 -8 4 -18v-15q-2 -10 -4 -15t-4 -8.5t-4 -6.5l-10 -10q-4 -4 -7.5 -5t-6.5 -3q-7 -4 -15 -4q-10 -1 -19 0q-8 0 -15 4q-2 2 -5.5 3t-7.5 4q-3 2 -5.5 5.5t-4.5 5.5q-6 5 -8 15q-2 3 -3.5 6.5
t-1.5 8.5q-1 13 1 24q5 12 10 20q7 9 18 16q5 3 11 5.5t11 2.5zM1415 588q-7 0 -10 -4q-5 -1 -10 -5q-4 -1 -6 -7q-5 -5 -5 -9q-2 -2 -2.5 -5t-1.5 -5v-11q2 -8 4 -11q0 -6 5 -9q1 -3 3 -5t3 -4q3 -1 5 -2.5t5 -2.5q2 -2 5 -2h5q5 -3 11 0q11 0 17 5q5 2 12 11q6 8 6 15
q3 7 1 16q0 6 -2 10q-2 3 -3 5l-2 4l-4 4t-4 3q-5 4 -10 5q-3 4 -11 4q-4 2 -11 0zM1362 371l2 16l96 60l-91 6l1 19l118 -9l-1 -12q0 -5 -1 -8q-3 -3 -4 -5l-81 -51l82 -6l-2 -19z" />
    <glyph glyph-name="quotesingle" unicode="'" horiz-adv-x="467" 
d="M301 929q-19 -15 -40.5 -23t-40.5 -8q-15 0 -25 6t-11 17q14 39 39.5 95t54 114.5t56.5 112.5t47 90q9 17 24 31.5t34 25t39 16.5t40 6q34 0 61 -21t27 -61q0 -30 -15.5 -65t-40.5 -72.5t-57 -75t-66 -72t-67 -64.5t-59 -52z" />
    <glyph glyph-name="parenleft" unicode="(" horiz-adv-x="865" 
d="M1042 1480q-100 -113 -197.5 -237t-185.5 -258t-161.5 -277t-125 -293.5t-76.5 -307t-16 -317.5q-5 -24 -21.5 -38t-37.5 -21t-42.5 -9t-35.5 -2q-36 0 -57 58.5t-23.5 158.5t15.5 232t59.5 279.5t109.5 301t165 296.5t225.5 266t292.5 209q26 0 53 -10.5t59 -30.5z" />
    <glyph glyph-name="parenright" unicode=")" horiz-adv-x="752" 
d="M-171 -304q100 112 197.5 236.5t185.5 258.5t161.5 277t125 293.5t76.5 307t16 317.5q5 24 21.5 38t37.5 21t42.5 9t35.5 2q36 0 57 -58.5t23.5 -158.5t-15.5 -232t-59.5 -279.5t-109.5 -301t-165 -296.5t-225.5 -266t-292.5 -209q-26 0 -53 10.5t-59 30.5z" />
    <glyph glyph-name="asterisk" unicode="*" horiz-adv-x="964" 
d="M359 1119q-16 15 -44.5 25t-57 21.5t-49.5 27.5t-21 43q0 14 8.5 22t20.5 11.5t24.5 4.5t20.5 1q30 0 52 -0.5t42.5 -1.5t41 -1.5t46.5 -0.5q5 29 1 56t-4 55q0 16 7.5 30t20 24.5t29.5 16.5t35 6q25 0 49 -15.5t44.5 -34.5t36.5 -34.5t25 -15.5q6 0 20 6t31 13.5
t35 13.5t32 6q17 0 36 -8.5t34.5 -23t25.5 -33t10 -38.5q0 -13 -7.5 -27.5t-19 -29.5t-26 -31t-28.5 -33q13 -8 24 -14t21 -11t20.5 -10.5t24.5 -13.5q-3 -21 -5.5 -36t-13.5 -26.5t-35 -21.5t-72 -21q-5 -1 -8.5 -21.5t-6.5 -45.5t-5.5 -47t-5.5 -27q-6 -9 -14.5 -18.5
t-23 -17.5t-35 -13t-48.5 -5q-27 0 -46 11t-33.5 30t-26.5 43.5t-26 50.5q-40 -16 -83.5 -33.5t-78.5 -17.5q-17 0 -35.5 6t-34 17t-26 27t-10.5 36q0 18 10.5 33.5t27 30.5t36.5 29.5t38 30.5z" />
    <glyph glyph-name="plus" unicode="+" horiz-adv-x="1006" 
d="M539 789q13 1 40 -4.5t57.5 -14t58 -17t41.5 -14.5q-14 -61 -26.5 -113.5t-24.5 -100.5q48 2 95.5 4t95.5 6l-19 -148q-49 -5 -103.5 -7t-112.5 -3q-20 -60 -44 -121.5t-56 -133.5l-219 73q1 5 9 25t18.5 47.5t22.5 58t22 56.5q-59 2 -108 5t-83 5l-12 124
q57 2 118.5 2.5t128.5 1.5q19 59 43 123.5t58 145.5z" />
    <glyph glyph-name="comma" unicode="," horiz-adv-x="480" 
d="M353 80q0 -41 -25.5 -88t-66.5 -88t-93 -71.5t-106 -38.5l-38 41q9 7 26.5 22t34.5 34.5t29.5 42.5t12.5 47q0 16 -10.5 33t-23.5 36.5t-23.5 41t-10.5 47.5q0 27 8.5 52t24.5 44t39 30.5t53 11.5q43 0 75 -16.5t53 -43.5t31 -62.5t10 -74.5z" />
    <glyph glyph-name="hyphen" unicode="-" horiz-adv-x="1034" 
d="M858 352q-78 -8 -167 -10.5t-176.5 -1t-168.5 7t-142 15.5l-13 138q85 12 171 15t173 3.5t175.5 3t178.5 14.5z" />
    <glyph glyph-name="period" unicode="." horiz-adv-x="491" 
d="M338 90q0 -32 -13.5 -55t-33.5 -39t-44.5 -23.5t-46.5 -7.5t-49.5 13t-52 34t-41.5 48.5t-17 57.5t6 59t20 51.5t37.5 36.5t58.5 14q41 0 74 -15.5t55.5 -41.5t34.5 -60.5t12 -71.5z" />
    <glyph glyph-name="slash" unicode="/" horiz-adv-x="1153" 
d="M1279 1647q10 0 32.5 -1.5t44.5 -5t39 -8t17 -10.5q0 -11 -6 -29q-6 -19 -45 -74.5t-101 -135.5t-143 -180.5t-172 -210t-187.5 -223.5t-189.5 -222t-178.5 -204t-154 -170t-116 -120.5t-64.5 -55.5q-8 -4 -28 -2.5t-41 6t-37.5 10.5t-16.5 11q0 9 0.5 22.5t8.5 32.5
q10 24 52 82.5t106.5 141.5t147.5 185t175 212t188 223t188 218.5t175 198t147.5 161.5t106.5 108.5t52 39.5z" />
    <glyph glyph-name="zero" unicode="0" 
d="M807 34q82 0 155 30t131 79h-570q57 -49 129 -79t155 -30zM571 189h564q45 55 70 124t25 147q0 80 -26.5 150t-80.5 139zM807 977q-104 0 -197.5 -39.5t-164 -109t-112.5 -164t-42 -204.5q0 -103 39.5 -196t108.5 -163.5t163.5 -112.5t204.5 -42q35 0 70 5.5t68 15.5
q78 23 146.5 68t119.5 109t80.5 144t29.5 172q0 101 -38.5 194.5t-107 165t-163 114.5t-205.5 43zM807 -14q-100 0 -186 38.5t-149.5 103.5t-99.5 151t-36 181q0 94 35 179.5t98 151t149.5 104t188.5 38.5q67 0 124 -17q72 -19 135 -60t110.5 -100t75 -134t27.5 -162
q0 -98 -37 -184.5t-101.5 -151t-150.5 -101.5t-183 -37zM478 730q-46 -55 -71.5 -122.5t-25.5 -147.5q0 -82 28.5 -155t77.5 -131l555 556h-564zM807 887q-83 0 -155.5 -29t-130.5 -80h566q-54 50 -126 79.5t-154 29.5zM957 -83l-90 -16l4 -26l34 6l16 -89l26 5l-16 89l31 6
zM1058 -117q-2 6 -9 8l-11 5h-15h-7h-9h-2v1q-3 3 -3 4l-2 1q2 1 2 4q0 1 1 1h2q0 1 5 1v3h1h5h3q4 0 4 1q4 0 8 1q0 2 1 3t1 2l5 10l-7 3q-8 4 -12 4q-2 0 -4.5 1t-4.5 1q-4 0 -6 -1t-4 -1l-13 -7q-2 -2 -4 -4.5t-3 -6.5q-7 -6 -7 -14v-5t2 -7q3 -8 10 -13q1 -1 3.5 -2.5
t4.5 -3.5q3 0 6.5 -1t5.5 -1h13h9h2q2 0 4 -2q3 0 3 -2h3v-5q0 -2 -0.5 -3t-0.5 -2v-1q-2 0 -3 -2.5t-2 -2.5q-2 -2 -6 -2q0 -1 -2 -1h-3q-2 0 -3 0.5t-3 0.5h-6h-8l-4 -2q-1 0 -1 -1.5t-1 -1.5l-5 -8q1 -4 3 -5.5t4 -4.5q3 -1 6.5 -2t6.5 -1q8 -3 12 -2q3 0 7 1t8 1
q3 2 6.5 3.5t7.5 4.5q4 4 5.5 6t4.5 7q1 4 3 7t2 8q0 4 -0.5 7.5t-3.5 6.5q0 8 -5 11zM1108 -122q-2 3 -4 3t-3.5 1t-3.5 1q-1 -2 -6 -2l-7 -4q-1 -1 -1 -3v-2q-2 -2 -2 -4v-2q0 -3 1 -4q0 -1 1 -1q0 -6 3 -6q2 -5 7 -5h6q5 0 7 2q1 2 3 2.5t2 2.5v2q0 2 2 2l3 3v2q0 6 -5 6
q0 6 -3 6zM831 -175q-1 0 -1 4q0 1 -1.5 1t-1.5 1q0 4 -1 4l-41 60q0 1 -2 2q-2 3 -9 3h-9h-14l3 -119l27 1v79l51 -79h25v118h-30zM584 -85l48 -18l8 25l-72 26l-42 -105l26 -12l15 41l38 -15l10 26l-37 14zM733 -114l-9 11q-3 3 -6.5 5t-7.5 4t-7 2.5t-8 2.5q-5 1 -8.5 1
h-7.5q-10 0 -14 -4q-4 -1 -7.5 -2t-7.5 -4l-11 -10q-4 -8 -10 -11q-2 -5 -3.5 -8.5t-1.5 -6.5v-18l3 -15l6 -13l11 -11q3 -4 7 -5.5t6 -3.5q7 -4 15 -4q5 -1 8.5 -1h7.5q5 0 13 2q4 2 8.5 3t6.5 4q6 2 12 10l8 11q4 7 7 17v15q0 3 -1 6.5t-3 8.5q-1 5 -2.5 7.5t-3.5 6.5z
M715 -153q0 -3 -1.5 -6.5t-3.5 -5.5q-3 -4 -4.5 -5.5l-4.5 -4.5q-3 -1 -5.5 -2t-6.5 -1q-6 -3 -11 0q-4 0 -7.5 1t-5.5 2l-8 10q-2 2 -2.5 5.5t-0.5 6.5q-3 5 0 14q0 6 5 11l6 9l13 5h11l12 -5l9 -9q2 -3 3.5 -5t1.5 -6q2 -8 0 -14zM1294 186q-1 -2 -2.5 -4t-1.5 -6
q0 -2 1.5 -4t2.5 -4l40 -58l-69 10h-10l-9 -6l-8 -16l96 -65l16 22l-46 33l60 -13l11 20l-33 50l47 -30l15 24l-98 64zM1281 59l-13 13l-15 3q-4 3 -15 3q-4 0 -7.5 -0.5t-7.5 -2.5l-13 -3q-4 -3 -8 -6.5t-7 -6.5l-4 -6t-4 -5q-3 -4 -4 -7.5t-3 -7.5q0 -4 -1 -7.5t-1 -7.5
v-7t2 -8l4 -14l10 -12l14 -10q4 -1 7 -3.5t8 -2.5q4 0 7.5 -1.5t7.5 -1.5q2 0 6 1.5t9 1.5q2 0 5.5 2.5t7.5 3.5q7 3 13 10l10 12q1 2 3 5.5t2 8.5q1 4 1 14v16l-6 12q-2 4 -4 7.5t-4 6.5zM1268 6q-4 -9 -8 -10q-7 -7 -10 -8q-3 -2 -6.5 -2h-5.5q-4 0 -7 1t-5 1l-11 8
q-4 4 -7 11q-1 4 -1 11q0 8 1 11q3 8 7 12l11 8q3 0 6 0.5t6 0.5q4 0 12 -2q2 -2 4.5 -3.5t5.5 -5.5q3 -1 4.5 -4t3.5 -6t2 -12v-5.5t-2 -5.5zM1194 -54l-7 -4q-2 0 -3 -2.5t-1 -4.5l-5 -9l-9 -6q-4 -2 -6 -3.5t-5 -1.5q-7 -3 -13 0q-2 2 -5 2.5t-6 2.5q-6 4 -7 11
q-5 2 -5 11q-4 3 0 14q0 2 0.5 4t1.5 7l4 4t5 3q7 4 9 4q3 1 10 1q2 0 10 4q2 3 5 5l2 6v9q-3 4 -12 4h-13l-14 -5l-11 -5q-2 -2 -5.5 -4.5t-6.5 -6.5q-2 -2 -4 -5.5t-4 -7.5l-6 -15v-16q0 -4 1.5 -7t1.5 -7l6 -15q3 -4 6 -6t5 -5l14 -10l12 -2q5 -2 16 -2q4 0 7 1t7 2
q5 1 8.5 3.5t6.5 5.5l5 2.5t5 4.5q3 1 5 4t5 6l4 14q4 4 4 13l-12 2h-6zM504 -14l-102 -74l16 -9q0 -1 2 -1h3q2 0 2.5 -0.5t2.5 0.5h5q3 0 4 1l11 9l39 -22l-2 -15v-5q0 -2 1 -3q0 -1 1 -1v-3q0 -2 2 -2l4 -3l16 -10l17 125zM493 -56v-2v-3l-2 -22l-18 11l16 14h2q2 0 2 1
v1v1h1q1 1 2 1zM463 -19l17 20l-69 59l-20 -21l27 -21l-58 -67l20 -18l60 69zM243 137l82 -10q2 0 6 1q2 0 2.5 0.5t2.5 0.5l11 8l-45 77l-23 -14l26 -44l-82 9q-2 0 -5.5 -0.5t-7.5 -3.5l-10 -5l45 -78l23 14zM342 29l22 19l-27 30l14 11l31 -39l21 18l-49 60l-90 -76
l51 -58l19 18l-32 37l17 11zM176 468l50 3q2 -2 4.5 -4t3.5 -4q2 -2 3.5 -5t1.5 -5q1 -7 4 -12q0 -3 0.5 -6t0.5 -5q0 -8 -0.5 -14t-3.5 -11q-1 -7 -4 -12t-7 -10q-7 -9 -19 -13q-11 -7 -22 -7h-18q-4 2 -7.5 3.5t-7.5 3.5q-4 1 -6.5 3t-5.5 4l-6 6t-5 7q-2 2 -3.5 5.5
t-3.5 7.5q-1 5 -1.5 9t-1.5 9v6.5t1 5.5q2 8 2 13q2 3 3.5 5.5t3.5 5.5q2 2 3.5 5t3.5 5l4 -4q2 -1 3 -2t2 -1q1 -3 1 -7v-4t-2 -3q-4 -5 -4 -11q-1 -5 -1 -13t3 -17q3 -4 5.5 -7t4.5 -6q5 -5 14 -7q7 -4 17 -3q6 0 12 3l4 2t4 3t4.5 3t4.5 4q1 2 2.5 4t3.5 4q0 4 1 6.5
t2 5.5q1 4 1 11q-1 3 -1.5 6.5t-2.5 7.5q0 3 -5 10l-18 -1v-5v-5q0 -2 -3 -5q-1 -1 -1.5 -2t-2.5 -2t-6 -1h-6zM249 558l-9 -76l-118 12l8 75l19 -1l-6 -56l30 -4l5 46l20 -1l-5 -46l31 -3l5 57zM149 578l-17 5l22 89l19 -5l-10 -37l97 -23l-4 -18l-97 24zM190 714l-17 9
l41 82l16 -8l-15 -32l89 -45l-8 -17l-90 45zM377 832l-11 -16l-40 30l-35 -47l41 -30l-11 -15l-97 70l11 15l40 -29l35 47l-40 30l11 16zM441 893l-54 -52l-83 86l53 53l14 -15l-39 -39l20 -21l33 31l13 -14l-32 -30l21 -23l41 39zM499 1016l10 -17l-39 -24l24 -42l-14 -11
l-63 101l63 40l9 -16l-46 -30l17 -26zM547 1016q0 -7 6 -10q1 -3 9 -7q2 -1 5 -1h5q6 -1 11 1q7 3 10 7q5 5 6 10q1 2 1 10q0 7 -1 11l-27 67l17 8l29 -68q1 -5 1.5 -9t0.5 -9q0 -10 -3 -19q-2 -4 -4.5 -7.5t-7.5 -6.5q-2 -5 -5.5 -7t-8.5 -4t-9.5 -3t-9.5 -1q-8 0 -18 4
q-5 2 -8.5 4t-6.5 6q-7 7 -10 16l-30 66l18 8zM647 1003l-29 116l20 5l22 -97l49 11l4 -20zM716 1018l-12 119l20 2l10 -98l51 5v-20zM849 1023l-19 3l12 118l44 -5q6 0 14 -4q9 -5 11 -10q4 -3 7 -13q3 -7 2 -14q-2 -4 -2.5 -7.5t-2.5 -8.5q-6 -8 -9 -11q-4 -3 -14 -7
q-3 -1 -13 -1l-25 3zM880 1082h7q3 1 7 6q3 0 3 5q2 1 4 7q0 5 -1 7t-2 3.5t-1 2.5l-3 3t-3 2t-3.5 1t-2.5 1l-25 3l-5 -39zM936 1011l-19 5l31 113l43 -11q6 0 12 -6q5 -4 9 -10q4 -5 4 -13q1 -5 0.5 -8t-0.5 -7q-2 -5 -5 -10t-6 -7q-7 -5 -10 -5q-2 -2 -4.5 -2.5
t-4.5 -1.5l22 -57l-15 2q-2 1 -3.5 2.5t-3.5 2.5q-3 1 -5 8l-19 46l-14 4zM962 1105l-9 -31l24 -6q2 0 3 -0.5t3 0.5q2 0 3.5 0.5t3.5 0.5t2 1.5t1 2.5q4 4 4 6q1 3 1 7q-1 2 -1 3.5t-1 3.5q-1 1 -2.5 1.5t-1.5 2.5q-3 3 -6 3zM1022 1048q1 4 3.5 7.5t5.5 6.5q2 3 5 5.5
t6 4.5q3 3 6.5 4t8.5 3q4 3 14 3h15q9 -1 17 -6q7 -3 14 -8q3 -4 5.5 -7t4.5 -5q2 -3 3.5 -6.5t3.5 -7.5q1 -4 2 -7.5t1 -7.5v-7.5t-2 -8.5q-1 -4 -1.5 -7.5t-3.5 -7.5l-3.5 -7l-3.5 -7q-4 -3 -7 -5t-5 -6q-4 -2 -7 -4t-7 -4q-6 0 -16 -2q-12 0 -17 1t-15 5q-11 6 -18 15
q-8 9 -13 21q-2 6 -2 11v12q0 11 6 22zM1039 1041q-2 -3 -2.5 -6t-2.5 -6v-10q0 -2 1 -5t2 -5q1 -6 4 -10q2 -2 3.5 -4t3.5 -3q3 -4 9 -6q7 -4 11 -4h11q7 0 12 1q4 4 8 4q3 2 5 4t4 3q2 3 3 5.5t3 4.5q2 4 2.5 8t1.5 9q0 4 -0.5 7.5t-0.5 7.5q-2 4 -4.5 7.5t-4.5 5.5
q-7 7 -14 10q-2 2 -5 2.5t-6 1.5h-10q-7 0 -10 -2q-4 -2 -6 -2.5t-4 -1.5l-4 -4t-3 -4q-7 -5 -7 -8zM1208 1016l9 -8q1 -2 2 -3.5t3 -3.5q0 -5 -2 -8l-27 -86l82 38q1 1 8 1q4 0 6 -3l10 -8l-117 -54l-14 11zM1264 790l-46 56l90 76l48 -56l-14 -14l-37 44l-22 -19l28 -36
l-16 -11l-27 35l-24 -21l35 -42zM1279 765l-9 16l101 61l23 -37q2 -3 2.5 -6t2.5 -8q2 -7 -2 -12q-2 -9 -5 -13l-4.5 -4.5t-6.5 -5.5q-3 -1 -5 -1.5t-5 -1.5q-3 0 -5 -1t-5 1q-4 0 -10 2q-3 1 -5 2t-4 3l-23 -59l-9 13q-4 2 -4 7q0 7 3 9l20 48l-8 12zM1366 815l-29 -16
l13 -19q3 -5 4 -6q1 0 6 -3h6q2 0 5 3q2 0 6 4q0 2 1 3t1 3q1 1 1 6q-1 1 -1 2.5t-2 3.5zM1421 695q1 1 1 8q0 3 -1 5q-2 2 -2 6q-3 0 -5 4q-2 1 -5 1q-3 1 -5 0t-2.5 -2t-1.5 -2t-2 -1.5t-2 -2.5v-7v-10v-3v-2v-10q0 -2 -0.5 -4.5t-0.5 -4.5q-4 -14 -19 -21q-4 -2 -7.5 -3
t-8.5 1q-6 0 -14 2q-3 3 -6.5 5t-5.5 6q-3 2 -5 5.5t-4 7.5q-2 10 -2 15q0 3 2 13q0 3 3 5l2 4q0 4 2 4q4 2 3 2l4 -2q3 -5 5 -6q0 -2 0.5 -3t0.5 -2q0 -4 -3 -7v-1v-7q0 -5 2 -9q0 -1 1 -2.5t2 -3.5q2 -1 3.5 -2.5t3.5 -2.5q1 -1 2.5 -1t3.5 -2h4.5t4.5 2q2 0 5 3q2 4 2 5
q1 3 1 8v7v4v12q0 8 2 13q1 2 2.5 4.5t3.5 5.5q3 2 5 3.5t6 3.5q8 3 14 2q6 0 12 -4q3 -2 6.5 -3.5t5.5 -5.5q3 -3 6 -11q2 -6 2 -10q0 -6 -1 -10q0 -4 -3 -10q-1 -2 -1 -4t-2 -4l-6 4q-3 1 -4 2.5t-3 3.5l-1.5 4.5t0.5 4.5zM1349 607l-5 18l114 34l5 -19zM1412 607h19
q6 0 14 -4q4 -1 7.5 -3.5t5.5 -4.5q3 -2 6.5 -4.5t5.5 -6.5q4 -8 8 -12q2 -8 4 -18v-15q-2 -10 -4 -15t-4 -8.5t-4 -6.5l-10 -10q-4 -4 -7.5 -5t-6.5 -3q-7 -4 -15 -4q-10 -1 -19 0q-8 0 -15 4q-2 2 -5.5 3t-7.5 4q-3 2 -5.5 5.5t-4.5 5.5q-6 5 -8 15q-2 3 -3.5 6.5
t-1.5 8.5q-1 13 1 24q5 12 10 20q7 9 18 16q5 3 11 5.5t11 2.5zM1415 588q-7 0 -10 -4q-5 -1 -10 -5q-4 -1 -6 -7q-5 -5 -5 -9q-2 -2 -2.5 -5t-1.5 -5v-11q2 -8 4 -11q0 -6 5 -9q1 -3 3 -5t3 -4q3 -1 5 -2.5t5 -2.5q2 -2 5 -2h5q5 -3 11 0q11 0 17 5q5 2 12 11q6 8 6 15
q3 7 1 16q0 6 -2 10q-2 3 -3 5l-2 4l-4 4t-4 3q-5 4 -10 5q-3 4 -11 4q-4 2 -11 0zM1362 371l2 16l96 60l-91 6l1 19l118 -9l-1 -12q0 -5 -1 -8q-3 -3 -4 -5l-81 -51l82 -6l-2 -19z" />
    <glyph glyph-name="one" unicode="1" 
d="M807 34q82 0 155 30t131 79h-570q57 -49 129 -79t155 -30zM571 189h564q45 55 70 124t25 147q0 80 -26.5 150t-80.5 139zM807 977q-104 0 -197.5 -39.5t-164 -109t-112.5 -164t-42 -204.5q0 -103 39.5 -196t108.5 -163.5t163.5 -112.5t204.5 -42q35 0 70 5.5t68 15.5
q78 23 146.5 68t119.5 109t80.5 144t29.5 172q0 101 -38.5 194.5t-107 165t-163 114.5t-205.5 43zM807 -14q-100 0 -186 38.5t-149.5 103.5t-99.5 151t-36 181q0 94 35 179.5t98 151t149.5 104t188.5 38.5q67 0 124 -17q72 -19 135 -60t110.5 -100t75 -134t27.5 -162
q0 -98 -37 -184.5t-101.5 -151t-150.5 -101.5t-183 -37zM478 730q-46 -55 -71.5 -122.5t-25.5 -147.5q0 -82 28.5 -155t77.5 -131l555 556h-564zM807 887q-83 0 -155.5 -29t-130.5 -80h566q-54 50 -126 79.5t-154 29.5zM957 -83l-90 -16l4 -26l34 6l16 -89l26 5l-16 89l31 6
zM1058 -117q-2 6 -9 8l-11 5h-15h-7h-9h-2v1q-3 3 -3 4l-2 1q2 1 2 4q0 1 1 1h2q0 1 5 1v3h1h5h3q4 0 4 1q4 0 8 1q0 2 1 3t1 2l5 10l-7 3q-8 4 -12 4q-2 0 -4.5 1t-4.5 1q-4 0 -6 -1t-4 -1l-13 -7q-2 -2 -4 -4.5t-3 -6.5q-7 -6 -7 -14v-5t2 -7q3 -8 10 -13q1 -1 3.5 -2.5
t4.5 -3.5q3 0 6.5 -1t5.5 -1h13h9h2q2 0 4 -2q3 0 3 -2h3v-5q0 -2 -0.5 -3t-0.5 -2v-1q-2 0 -3 -2.5t-2 -2.5q-2 -2 -6 -2q0 -1 -2 -1h-3q-2 0 -3 0.5t-3 0.5h-6h-8l-4 -2q-1 0 -1 -1.5t-1 -1.5l-5 -8q1 -4 3 -5.5t4 -4.5q3 -1 6.5 -2t6.5 -1q8 -3 12 -2q3 0 7 1t8 1
q3 2 6.5 3.5t7.5 4.5q4 4 5.5 6t4.5 7q1 4 3 7t2 8q0 4 -0.5 7.5t-3.5 6.5q0 8 -5 11zM1108 -122q-2 3 -4 3t-3.5 1t-3.5 1q-1 -2 -6 -2l-7 -4q-1 -1 -1 -3v-2q-2 -2 -2 -4v-2q0 -3 1 -4q0 -1 1 -1q0 -6 3 -6q2 -5 7 -5h6q5 0 7 2q1 2 3 2.5t2 2.5v2q0 2 2 2l3 3v2q0 6 -5 6
q0 6 -3 6zM831 -175q-1 0 -1 4q0 1 -1.5 1t-1.5 1q0 4 -1 4l-41 60q0 1 -2 2q-2 3 -9 3h-9h-14l3 -119l27 1v79l51 -79h25v118h-30zM584 -85l48 -18l8 25l-72 26l-42 -105l26 -12l15 41l38 -15l10 26l-37 14zM733 -114l-9 11q-3 3 -6.5 5t-7.5 4t-7 2.5t-8 2.5q-5 1 -8.5 1
h-7.5q-10 0 -14 -4q-4 -1 -7.5 -2t-7.5 -4l-11 -10q-4 -8 -10 -11q-2 -5 -3.5 -8.5t-1.5 -6.5v-18l3 -15l6 -13l11 -11q3 -4 7 -5.5t6 -3.5q7 -4 15 -4q5 -1 8.5 -1h7.5q5 0 13 2q4 2 8.5 3t6.5 4q6 2 12 10l8 11q4 7 7 17v15q0 3 -1 6.5t-3 8.5q-1 5 -2.5 7.5t-3.5 6.5z
M715 -153q0 -3 -1.5 -6.5t-3.5 -5.5q-3 -4 -4.5 -5.5l-4.5 -4.5q-3 -1 -5.5 -2t-6.5 -1q-6 -3 -11 0q-4 0 -7.5 1t-5.5 2l-8 10q-2 2 -2.5 5.5t-0.5 6.5q-3 5 0 14q0 6 5 11l6 9l13 5h11l12 -5l9 -9q2 -3 3.5 -5t1.5 -6q2 -8 0 -14zM1294 186q-1 -2 -2.5 -4t-1.5 -6
q0 -2 1.5 -4t2.5 -4l40 -58l-69 10h-10l-9 -6l-8 -16l96 -65l16 22l-46 33l60 -13l11 20l-33 50l47 -30l15 24l-98 64zM1281 59l-13 13l-15 3q-4 3 -15 3q-4 0 -7.5 -0.5t-7.5 -2.5l-13 -3q-4 -3 -8 -6.5t-7 -6.5l-4 -6t-4 -5q-3 -4 -4 -7.5t-3 -7.5q0 -4 -1 -7.5t-1 -7.5
v-7t2 -8l4 -14l10 -12l14 -10q4 -1 7 -3.5t8 -2.5q4 0 7.5 -1.5t7.5 -1.5q2 0 6 1.5t9 1.5q2 0 5.5 2.5t7.5 3.5q7 3 13 10l10 12q1 2 3 5.5t2 8.5q1 4 1 14v16l-6 12q-2 4 -4 7.5t-4 6.5zM1268 6q-4 -9 -8 -10q-7 -7 -10 -8q-3 -2 -6.5 -2h-5.5q-4 0 -7 1t-5 1l-11 8
q-4 4 -7 11q-1 4 -1 11q0 8 1 11q3 8 7 12l11 8q3 0 6 0.5t6 0.5q4 0 12 -2q2 -2 4.5 -3.5t5.5 -5.5q3 -1 4.5 -4t3.5 -6t2 -12v-5.5t-2 -5.5zM1194 -54l-7 -4q-2 0 -3 -2.5t-1 -4.5l-5 -9l-9 -6q-4 -2 -6 -3.5t-5 -1.5q-7 -3 -13 0q-2 2 -5 2.5t-6 2.5q-6 4 -7 11
q-5 2 -5 11q-4 3 0 14q0 2 0.5 4t1.5 7l4 4t5 3q7 4 9 4q3 1 10 1q2 0 10 4q2 3 5 5l2 6v9q-3 4 -12 4h-13l-14 -5l-11 -5q-2 -2 -5.5 -4.5t-6.5 -6.5q-2 -2 -4 -5.5t-4 -7.5l-6 -15v-16q0 -4 1.5 -7t1.5 -7l6 -15q3 -4 6 -6t5 -5l14 -10l12 -2q5 -2 16 -2q4 0 7 1t7 2
q5 1 8.5 3.5t6.5 5.5l5 2.5t5 4.5q3 1 5 4t5 6l4 14q4 4 4 13l-12 2h-6zM504 -14l-102 -74l16 -9q0 -1 2 -1h3q2 0 2.5 -0.5t2.5 0.5h5q3 0 4 1l11 9l39 -22l-2 -15v-5q0 -2 1 -3q0 -1 1 -1v-3q0 -2 2 -2l4 -3l16 -10l17 125zM493 -56v-2v-3l-2 -22l-18 11l16 14h2q2 0 2 1
v1v1h1q1 1 2 1zM463 -19l17 20l-69 59l-20 -21l27 -21l-58 -67l20 -18l60 69zM243 137l82 -10q2 0 6 1q2 0 2.5 0.5t2.5 0.5l11 8l-45 77l-23 -14l26 -44l-82 9q-2 0 -5.5 -0.5t-7.5 -3.5l-10 -5l45 -78l23 14zM342 29l22 19l-27 30l14 11l31 -39l21 18l-49 60l-90 -76
l51 -58l19 18l-32 37l17 11zM176 468l50 3q2 -2 4.5 -4t3.5 -4q2 -2 3.5 -5t1.5 -5q1 -7 4 -12q0 -3 0.5 -6t0.5 -5q0 -8 -0.5 -14t-3.5 -11q-1 -7 -4 -12t-7 -10q-7 -9 -19 -13q-11 -7 -22 -7h-18q-4 2 -7.5 3.5t-7.5 3.5q-4 1 -6.5 3t-5.5 4l-6 6t-5 7q-2 2 -3.5 5.5
t-3.5 7.5q-1 5 -1.5 9t-1.5 9v6.5t1 5.5q2 8 2 13q2 3 3.5 5.5t3.5 5.5q2 2 3.5 5t3.5 5l4 -4q2 -1 3 -2t2 -1q1 -3 1 -7v-4t-2 -3q-4 -5 -4 -11q-1 -5 -1 -13t3 -17q3 -4 5.5 -7t4.5 -6q5 -5 14 -7q7 -4 17 -3q6 0 12 3l4 2t4 3t4.5 3t4.5 4q1 2 2.5 4t3.5 4q0 4 1 6.5
t2 5.5q1 4 1 11q-1 3 -1.5 6.5t-2.5 7.5q0 3 -5 10l-18 -1v-5v-5q0 -2 -3 -5q-1 -1 -1.5 -2t-2.5 -2t-6 -1h-6zM249 558l-9 -76l-118 12l8 75l19 -1l-6 -56l30 -4l5 46l20 -1l-5 -46l31 -3l5 57zM149 578l-17 5l22 89l19 -5l-10 -37l97 -23l-4 -18l-97 24zM190 714l-17 9
l41 82l16 -8l-15 -32l89 -45l-8 -17l-90 45zM377 832l-11 -16l-40 30l-35 -47l41 -30l-11 -15l-97 70l11 15l40 -29l35 47l-40 30l11 16zM441 893l-54 -52l-83 86l53 53l14 -15l-39 -39l20 -21l33 31l13 -14l-32 -30l21 -23l41 39zM499 1016l10 -17l-39 -24l24 -42l-14 -11
l-63 101l63 40l9 -16l-46 -30l17 -26zM547 1016q0 -7 6 -10q1 -3 9 -7q2 -1 5 -1h5q6 -1 11 1q7 3 10 7q5 5 6 10q1 2 1 10q0 7 -1 11l-27 67l17 8l29 -68q1 -5 1.5 -9t0.5 -9q0 -10 -3 -19q-2 -4 -4.5 -7.5t-7.5 -6.5q-2 -5 -5.5 -7t-8.5 -4t-9.5 -3t-9.5 -1q-8 0 -18 4
q-5 2 -8.5 4t-6.5 6q-7 7 -10 16l-30 66l18 8zM647 1003l-29 116l20 5l22 -97l49 11l4 -20zM716 1018l-12 119l20 2l10 -98l51 5v-20zM849 1023l-19 3l12 118l44 -5q6 0 14 -4q9 -5 11 -10q4 -3 7 -13q3 -7 2 -14q-2 -4 -2.5 -7.5t-2.5 -8.5q-6 -8 -9 -11q-4 -3 -14 -7
q-3 -1 -13 -1l-25 3zM880 1082h7q3 1 7 6q3 0 3 5q2 1 4 7q0 5 -1 7t-2 3.5t-1 2.5l-3 3t-3 2t-3.5 1t-2.5 1l-25 3l-5 -39zM936 1011l-19 5l31 113l43 -11q6 0 12 -6q5 -4 9 -10q4 -5 4 -13q1 -5 0.5 -8t-0.5 -7q-2 -5 -5 -10t-6 -7q-7 -5 -10 -5q-2 -2 -4.5 -2.5
t-4.5 -1.5l22 -57l-15 2q-2 1 -3.5 2.5t-3.5 2.5q-3 1 -5 8l-19 46l-14 4zM962 1105l-9 -31l24 -6q2 0 3 -0.5t3 0.5q2 0 3.5 0.5t3.5 0.5t2 1.5t1 2.5q4 4 4 6q1 3 1 7q-1 2 -1 3.5t-1 3.5q-1 1 -2.5 1.5t-1.5 2.5q-3 3 -6 3zM1022 1048q1 4 3.5 7.5t5.5 6.5q2 3 5 5.5
t6 4.5q3 3 6.5 4t8.5 3q4 3 14 3h15q9 -1 17 -6q7 -3 14 -8q3 -4 5.5 -7t4.5 -5q2 -3 3.5 -6.5t3.5 -7.5q1 -4 2 -7.5t1 -7.5v-7.5t-2 -8.5q-1 -4 -1.5 -7.5t-3.5 -7.5l-3.5 -7l-3.5 -7q-4 -3 -7 -5t-5 -6q-4 -2 -7 -4t-7 -4q-6 0 -16 -2q-12 0 -17 1t-15 5q-11 6 -18 15
q-8 9 -13 21q-2 6 -2 11v12q0 11 6 22zM1039 1041q-2 -3 -2.5 -6t-2.5 -6v-10q0 -2 1 -5t2 -5q1 -6 4 -10q2 -2 3.5 -4t3.5 -3q3 -4 9 -6q7 -4 11 -4h11q7 0 12 1q4 4 8 4q3 2 5 4t4 3q2 3 3 5.5t3 4.5q2 4 2.5 8t1.5 9q0 4 -0.5 7.5t-0.5 7.5q-2 4 -4.5 7.5t-4.5 5.5
q-7 7 -14 10q-2 2 -5 2.5t-6 1.5h-10q-7 0 -10 -2q-4 -2 -6 -2.5t-4 -1.5l-4 -4t-3 -4q-7 -5 -7 -8zM1208 1016l9 -8q1 -2 2 -3.5t3 -3.5q0 -5 -2 -8l-27 -86l82 38q1 1 8 1q4 0 6 -3l10 -8l-117 -54l-14 11zM1264 790l-46 56l90 76l48 -56l-14 -14l-37 44l-22 -19l28 -36
l-16 -11l-27 35l-24 -21l35 -42zM1279 765l-9 16l101 61l23 -37q2 -3 2.5 -6t2.5 -8q2 -7 -2 -12q-2 -9 -5 -13l-4.5 -4.5t-6.5 -5.5q-3 -1 -5 -1.5t-5 -1.5q-3 0 -5 -1t-5 1q-4 0 -10 2q-3 1 -5 2t-4 3l-23 -59l-9 13q-4 2 -4 7q0 7 3 9l20 48l-8 12zM1366 815l-29 -16
l13 -19q3 -5 4 -6q1 0 6 -3h6q2 0 5 3q2 0 6 4q0 2 1 3t1 3q1 1 1 6q-1 1 -1 2.5t-2 3.5zM1421 695q1 1 1 8q0 3 -1 5q-2 2 -2 6q-3 0 -5 4q-2 1 -5 1q-3 1 -5 0t-2.5 -2t-1.5 -2t-2 -1.5t-2 -2.5v-7v-10v-3v-2v-10q0 -2 -0.5 -4.5t-0.5 -4.5q-4 -14 -19 -21q-4 -2 -7.5 -3
t-8.5 1q-6 0 -14 2q-3 3 -6.5 5t-5.5 6q-3 2 -5 5.5t-4 7.5q-2 10 -2 15q0 3 2 13q0 3 3 5l2 4q0 4 2 4q4 2 3 2l4 -2q3 -5 5 -6q0 -2 0.5 -3t0.5 -2q0 -4 -3 -7v-1v-7q0 -5 2 -9q0 -1 1 -2.5t2 -3.5q2 -1 3.5 -2.5t3.5 -2.5q1 -1 2.5 -1t3.5 -2h4.5t4.5 2q2 0 5 3q2 4 2 5
q1 3 1 8v7v4v12q0 8 2 13q1 2 2.5 4.5t3.5 5.5q3 2 5 3.5t6 3.5q8 3 14 2q6 0 12 -4q3 -2 6.5 -3.5t5.5 -5.5q3 -3 6 -11q2 -6 2 -10q0 -6 -1 -10q0 -4 -3 -10q-1 -2 -1 -4t-2 -4l-6 4q-3 1 -4 2.5t-3 3.5l-1.5 4.5t0.5 4.5zM1349 607l-5 18l114 34l5 -19zM1412 607h19
q6 0 14 -4q4 -1 7.5 -3.5t5.5 -4.5q3 -2 6.5 -4.5t5.5 -6.5q4 -8 8 -12q2 -8 4 -18v-15q-2 -10 -4 -15t-4 -8.5t-4 -6.5l-10 -10q-4 -4 -7.5 -5t-6.5 -3q-7 -4 -15 -4q-10 -1 -19 0q-8 0 -15 4q-2 2 -5.5 3t-7.5 4q-3 2 -5.5 5.5t-4.5 5.5q-6 5 -8 15q-2 3 -3.5 6.5
t-1.5 8.5q-1 13 1 24q5 12 10 20q7 9 18 16q5 3 11 5.5t11 2.5zM1415 588q-7 0 -10 -4q-5 -1 -10 -5q-4 -1 -6 -7q-5 -5 -5 -9q-2 -2 -2.5 -5t-1.5 -5v-11q2 -8 4 -11q0 -6 5 -9q1 -3 3 -5t3 -4q3 -1 5 -2.5t5 -2.5q2 -2 5 -2h5q5 -3 11 0q11 0 17 5q5 2 12 11q6 8 6 15
q3 7 1 16q0 6 -2 10q-2 3 -3 5l-2 4l-4 4t-4 3q-5 4 -10 5q-3 4 -11 4q-4 2 -11 0zM1362 371l2 16l96 60l-91 6l1 19l118 -9l-1 -12q0 -5 -1 -8q-3 -3 -4 -5l-81 -51l82 -6l-2 -19z" />
    <glyph glyph-name="two" unicode="2" 
d="M807 34q82 0 155 30t131 79h-570q57 -49 129 -79t155 -30zM571 189h564q45 55 70 124t25 147q0 80 -26.5 150t-80.5 139zM807 977q-104 0 -197.5 -39.5t-164 -109t-112.5 -164t-42 -204.5q0 -103 39.5 -196t108.5 -163.5t163.5 -112.5t204.5 -42q35 0 70 5.5t68 15.5
q78 23 146.5 68t119.5 109t80.5 144t29.5 172q0 101 -38.5 194.5t-107 165t-163 114.5t-205.5 43zM807 -14q-100 0 -186 38.5t-149.5 103.5t-99.5 151t-36 181q0 94 35 179.5t98 151t149.5 104t188.5 38.5q67 0 124 -17q72 -19 135 -60t110.5 -100t75 -134t27.5 -162
q0 -98 -37 -184.5t-101.5 -151t-150.5 -101.5t-183 -37zM478 730q-46 -55 -71.5 -122.5t-25.5 -147.5q0 -82 28.5 -155t77.5 -131l555 556h-564zM807 887q-83 0 -155.5 -29t-130.5 -80h566q-54 50 -126 79.5t-154 29.5zM957 -83l-90 -16l4 -26l34 6l16 -89l26 5l-16 89l31 6
zM1058 -117q-2 6 -9 8l-11 5h-15h-7h-9h-2v1q-3 3 -3 4l-2 1q2 1 2 4q0 1 1 1h2q0 1 5 1v3h1h5h3q4 0 4 1q4 0 8 1q0 2 1 3t1 2l5 10l-7 3q-8 4 -12 4q-2 0 -4.5 1t-4.5 1q-4 0 -6 -1t-4 -1l-13 -7q-2 -2 -4 -4.5t-3 -6.5q-7 -6 -7 -14v-5t2 -7q3 -8 10 -13q1 -1 3.5 -2.5
t4.5 -3.5q3 0 6.5 -1t5.5 -1h13h9h2q2 0 4 -2q3 0 3 -2h3v-5q0 -2 -0.5 -3t-0.5 -2v-1q-2 0 -3 -2.5t-2 -2.5q-2 -2 -6 -2q0 -1 -2 -1h-3q-2 0 -3 0.5t-3 0.5h-6h-8l-4 -2q-1 0 -1 -1.5t-1 -1.5l-5 -8q1 -4 3 -5.5t4 -4.5q3 -1 6.5 -2t6.5 -1q8 -3 12 -2q3 0 7 1t8 1
q3 2 6.5 3.5t7.5 4.5q4 4 5.5 6t4.5 7q1 4 3 7t2 8q0 4 -0.5 7.5t-3.5 6.5q0 8 -5 11zM1108 -122q-2 3 -4 3t-3.5 1t-3.5 1q-1 -2 -6 -2l-7 -4q-1 -1 -1 -3v-2q-2 -2 -2 -4v-2q0 -3 1 -4q0 -1 1 -1q0 -6 3 -6q2 -5 7 -5h6q5 0 7 2q1 2 3 2.5t2 2.5v2q0 2 2 2l3 3v2q0 6 -5 6
q0 6 -3 6zM831 -175q-1 0 -1 4q0 1 -1.5 1t-1.5 1q0 4 -1 4l-41 60q0 1 -2 2q-2 3 -9 3h-9h-14l3 -119l27 1v79l51 -79h25v118h-30zM584 -85l48 -18l8 25l-72 26l-42 -105l26 -12l15 41l38 -15l10 26l-37 14zM733 -114l-9 11q-3 3 -6.5 5t-7.5 4t-7 2.5t-8 2.5q-5 1 -8.5 1
h-7.5q-10 0 -14 -4q-4 -1 -7.5 -2t-7.5 -4l-11 -10q-4 -8 -10 -11q-2 -5 -3.5 -8.5t-1.5 -6.5v-18l3 -15l6 -13l11 -11q3 -4 7 -5.5t6 -3.5q7 -4 15 -4q5 -1 8.5 -1h7.5q5 0 13 2q4 2 8.5 3t6.5 4q6 2 12 10l8 11q4 7 7 17v15q0 3 -1 6.5t-3 8.5q-1 5 -2.5 7.5t-3.5 6.5z
M715 -153q0 -3 -1.5 -6.5t-3.5 -5.5q-3 -4 -4.5 -5.5l-4.5 -4.5q-3 -1 -5.5 -2t-6.5 -1q-6 -3 -11 0q-4 0 -7.5 1t-5.5 2l-8 10q-2 2 -2.5 5.5t-0.5 6.5q-3 5 0 14q0 6 5 11l6 9l13 5h11l12 -5l9 -9q2 -3 3.5 -5t1.5 -6q2 -8 0 -14zM1294 186q-1 -2 -2.5 -4t-1.5 -6
q0 -2 1.5 -4t2.5 -4l40 -58l-69 10h-10l-9 -6l-8 -16l96 -65l16 22l-46 33l60 -13l11 20l-33 50l47 -30l15 24l-98 64zM1281 59l-13 13l-15 3q-4 3 -15 3q-4 0 -7.5 -0.5t-7.5 -2.5l-13 -3q-4 -3 -8 -6.5t-7 -6.5l-4 -6t-4 -5q-3 -4 -4 -7.5t-3 -7.5q0 -4 -1 -7.5t-1 -7.5
v-7t2 -8l4 -14l10 -12l14 -10q4 -1 7 -3.5t8 -2.5q4 0 7.5 -1.5t7.5 -1.5q2 0 6 1.5t9 1.5q2 0 5.5 2.5t7.5 3.5q7 3 13 10l10 12q1 2 3 5.5t2 8.5q1 4 1 14v16l-6 12q-2 4 -4 7.5t-4 6.5zM1268 6q-4 -9 -8 -10q-7 -7 -10 -8q-3 -2 -6.5 -2h-5.5q-4 0 -7 1t-5 1l-11 8
q-4 4 -7 11q-1 4 -1 11q0 8 1 11q3 8 7 12l11 8q3 0 6 0.5t6 0.5q4 0 12 -2q2 -2 4.5 -3.5t5.5 -5.5q3 -1 4.5 -4t3.5 -6t2 -12v-5.5t-2 -5.5zM1194 -54l-7 -4q-2 0 -3 -2.5t-1 -4.5l-5 -9l-9 -6q-4 -2 -6 -3.5t-5 -1.5q-7 -3 -13 0q-2 2 -5 2.5t-6 2.5q-6 4 -7 11
q-5 2 -5 11q-4 3 0 14q0 2 0.5 4t1.5 7l4 4t5 3q7 4 9 4q3 1 10 1q2 0 10 4q2 3 5 5l2 6v9q-3 4 -12 4h-13l-14 -5l-11 -5q-2 -2 -5.5 -4.5t-6.5 -6.5q-2 -2 -4 -5.5t-4 -7.5l-6 -15v-16q0 -4 1.5 -7t1.5 -7l6 -15q3 -4 6 -6t5 -5l14 -10l12 -2q5 -2 16 -2q4 0 7 1t7 2
q5 1 8.5 3.5t6.5 5.5l5 2.5t5 4.5q3 1 5 4t5 6l4 14q4 4 4 13l-12 2h-6zM504 -14l-102 -74l16 -9q0 -1 2 -1h3q2 0 2.5 -0.5t2.5 0.5h5q3 0 4 1l11 9l39 -22l-2 -15v-5q0 -2 1 -3q0 -1 1 -1v-3q0 -2 2 -2l4 -3l16 -10l17 125zM493 -56v-2v-3l-2 -22l-18 11l16 14h2q2 0 2 1
v1v1h1q1 1 2 1zM463 -19l17 20l-69 59l-20 -21l27 -21l-58 -67l20 -18l60 69zM243 137l82 -10q2 0 6 1q2 0 2.5 0.5t2.5 0.5l11 8l-45 77l-23 -14l26 -44l-82 9q-2 0 -5.5 -0.5t-7.5 -3.5l-10 -5l45 -78l23 14zM342 29l22 19l-27 30l14 11l31 -39l21 18l-49 60l-90 -76
l51 -58l19 18l-32 37l17 11zM176 468l50 3q2 -2 4.5 -4t3.5 -4q2 -2 3.5 -5t1.5 -5q1 -7 4 -12q0 -3 0.5 -6t0.5 -5q0 -8 -0.5 -14t-3.5 -11q-1 -7 -4 -12t-7 -10q-7 -9 -19 -13q-11 -7 -22 -7h-18q-4 2 -7.5 3.5t-7.5 3.5q-4 1 -6.5 3t-5.5 4l-6 6t-5 7q-2 2 -3.5 5.5
t-3.5 7.5q-1 5 -1.5 9t-1.5 9v6.5t1 5.5q2 8 2 13q2 3 3.5 5.5t3.5 5.5q2 2 3.5 5t3.5 5l4 -4q2 -1 3 -2t2 -1q1 -3 1 -7v-4t-2 -3q-4 -5 -4 -11q-1 -5 -1 -13t3 -17q3 -4 5.5 -7t4.5 -6q5 -5 14 -7q7 -4 17 -3q6 0 12 3l4 2t4 3t4.5 3t4.5 4q1 2 2.5 4t3.5 4q0 4 1 6.5
t2 5.5q1 4 1 11q-1 3 -1.5 6.5t-2.5 7.5q0 3 -5 10l-18 -1v-5v-5q0 -2 -3 -5q-1 -1 -1.5 -2t-2.5 -2t-6 -1h-6zM249 558l-9 -76l-118 12l8 75l19 -1l-6 -56l30 -4l5 46l20 -1l-5 -46l31 -3l5 57zM149 578l-17 5l22 89l19 -5l-10 -37l97 -23l-4 -18l-97 24zM190 714l-17 9
l41 82l16 -8l-15 -32l89 -45l-8 -17l-90 45zM377 832l-11 -16l-40 30l-35 -47l41 -30l-11 -15l-97 70l11 15l40 -29l35 47l-40 30l11 16zM441 893l-54 -52l-83 86l53 53l14 -15l-39 -39l20 -21l33 31l13 -14l-32 -30l21 -23l41 39zM499 1016l10 -17l-39 -24l24 -42l-14 -11
l-63 101l63 40l9 -16l-46 -30l17 -26zM547 1016q0 -7 6 -10q1 -3 9 -7q2 -1 5 -1h5q6 -1 11 1q7 3 10 7q5 5 6 10q1 2 1 10q0 7 -1 11l-27 67l17 8l29 -68q1 -5 1.5 -9t0.5 -9q0 -10 -3 -19q-2 -4 -4.5 -7.5t-7.5 -6.5q-2 -5 -5.5 -7t-8.5 -4t-9.5 -3t-9.5 -1q-8 0 -18 4
q-5 2 -8.5 4t-6.5 6q-7 7 -10 16l-30 66l18 8zM647 1003l-29 116l20 5l22 -97l49 11l4 -20zM716 1018l-12 119l20 2l10 -98l51 5v-20zM849 1023l-19 3l12 118l44 -5q6 0 14 -4q9 -5 11 -10q4 -3 7 -13q3 -7 2 -14q-2 -4 -2.5 -7.5t-2.5 -8.5q-6 -8 -9 -11q-4 -3 -14 -7
q-3 -1 -13 -1l-25 3zM880 1082h7q3 1 7 6q3 0 3 5q2 1 4 7q0 5 -1 7t-2 3.5t-1 2.5l-3 3t-3 2t-3.5 1t-2.5 1l-25 3l-5 -39zM936 1011l-19 5l31 113l43 -11q6 0 12 -6q5 -4 9 -10q4 -5 4 -13q1 -5 0.5 -8t-0.5 -7q-2 -5 -5 -10t-6 -7q-7 -5 -10 -5q-2 -2 -4.5 -2.5
t-4.5 -1.5l22 -57l-15 2q-2 1 -3.5 2.5t-3.5 2.5q-3 1 -5 8l-19 46l-14 4zM962 1105l-9 -31l24 -6q2 0 3 -0.5t3 0.5q2 0 3.5 0.5t3.5 0.5t2 1.5t1 2.5q4 4 4 6q1 3 1 7q-1 2 -1 3.5t-1 3.5q-1 1 -2.5 1.5t-1.5 2.5q-3 3 -6 3zM1022 1048q1 4 3.5 7.5t5.5 6.5q2 3 5 5.5
t6 4.5q3 3 6.5 4t8.5 3q4 3 14 3h15q9 -1 17 -6q7 -3 14 -8q3 -4 5.5 -7t4.5 -5q2 -3 3.5 -6.5t3.5 -7.5q1 -4 2 -7.5t1 -7.5v-7.5t-2 -8.5q-1 -4 -1.5 -7.5t-3.5 -7.5l-3.5 -7l-3.5 -7q-4 -3 -7 -5t-5 -6q-4 -2 -7 -4t-7 -4q-6 0 -16 -2q-12 0 -17 1t-15 5q-11 6 -18 15
q-8 9 -13 21q-2 6 -2 11v12q0 11 6 22zM1039 1041q-2 -3 -2.5 -6t-2.5 -6v-10q0 -2 1 -5t2 -5q1 -6 4 -10q2 -2 3.5 -4t3.5 -3q3 -4 9 -6q7 -4 11 -4h11q7 0 12 1q4 4 8 4q3 2 5 4t4 3q2 3 3 5.5t3 4.5q2 4 2.5 8t1.5 9q0 4 -0.5 7.5t-0.5 7.5q-2 4 -4.5 7.5t-4.5 5.5
q-7 7 -14 10q-2 2 -5 2.5t-6 1.5h-10q-7 0 -10 -2q-4 -2 -6 -2.5t-4 -1.5l-4 -4t-3 -4q-7 -5 -7 -8zM1208 1016l9 -8q1 -2 2 -3.5t3 -3.5q0 -5 -2 -8l-27 -86l82 38q1 1 8 1q4 0 6 -3l10 -8l-117 -54l-14 11zM1264 790l-46 56l90 76l48 -56l-14 -14l-37 44l-22 -19l28 -36
l-16 -11l-27 35l-24 -21l35 -42zM1279 765l-9 16l101 61l23 -37q2 -3 2.5 -6t2.5 -8q2 -7 -2 -12q-2 -9 -5 -13l-4.5 -4.5t-6.5 -5.5q-3 -1 -5 -1.5t-5 -1.5q-3 0 -5 -1t-5 1q-4 0 -10 2q-3 1 -5 2t-4 3l-23 -59l-9 13q-4 2 -4 7q0 7 3 9l20 48l-8 12zM1366 815l-29 -16
l13 -19q3 -5 4 -6q1 0 6 -3h6q2 0 5 3q2 0 6 4q0 2 1 3t1 3q1 1 1 6q-1 1 -1 2.5t-2 3.5zM1421 695q1 1 1 8q0 3 -1 5q-2 2 -2 6q-3 0 -5 4q-2 1 -5 1q-3 1 -5 0t-2.5 -2t-1.5 -2t-2 -1.5t-2 -2.5v-7v-10v-3v-2v-10q0 -2 -0.5 -4.5t-0.5 -4.5q-4 -14 -19 -21q-4 -2 -7.5 -3
t-8.5 1q-6 0 -14 2q-3 3 -6.5 5t-5.5 6q-3 2 -5 5.5t-4 7.5q-2 10 -2 15q0 3 2 13q0 3 3 5l2 4q0 4 2 4q4 2 3 2l4 -2q3 -5 5 -6q0 -2 0.5 -3t0.5 -2q0 -4 -3 -7v-1v-7q0 -5 2 -9q0 -1 1 -2.5t2 -3.5q2 -1 3.5 -2.5t3.5 -2.5q1 -1 2.5 -1t3.5 -2h4.5t4.5 2q2 0 5 3q2 4 2 5
q1 3 1 8v7v4v12q0 8 2 13q1 2 2.5 4.5t3.5 5.5q3 2 5 3.5t6 3.5q8 3 14 2q6 0 12 -4q3 -2 6.5 -3.5t5.5 -5.5q3 -3 6 -11q2 -6 2 -10q0 -6 -1 -10q0 -4 -3 -10q-1 -2 -1 -4t-2 -4l-6 4q-3 1 -4 2.5t-3 3.5l-1.5 4.5t0.5 4.5zM1349 607l-5 18l114 34l5 -19zM1412 607h19
q6 0 14 -4q4 -1 7.5 -3.5t5.5 -4.5q3 -2 6.5 -4.5t5.5 -6.5q4 -8 8 -12q2 -8 4 -18v-15q-2 -10 -4 -15t-4 -8.5t-4 -6.5l-10 -10q-4 -4 -7.5 -5t-6.5 -3q-7 -4 -15 -4q-10 -1 -19 0q-8 0 -15 4q-2 2 -5.5 3t-7.5 4q-3 2 -5.5 5.5t-4.5 5.5q-6 5 -8 15q-2 3 -3.5 6.5
t-1.5 8.5q-1 13 1 24q5 12 10 20q7 9 18 16q5 3 11 5.5t11 2.5zM1415 588q-7 0 -10 -4q-5 -1 -10 -5q-4 -1 -6 -7q-5 -5 -5 -9q-2 -2 -2.5 -5t-1.5 -5v-11q2 -8 4 -11q0 -6 5 -9q1 -3 3 -5t3 -4q3 -1 5 -2.5t5 -2.5q2 -2 5 -2h5q5 -3 11 0q11 0 17 5q5 2 12 11q6 8 6 15
q3 7 1 16q0 6 -2 10q-2 3 -3 5l-2 4l-4 4t-4 3q-5 4 -10 5q-3 4 -11 4q-4 2 -11 0zM1362 371l2 16l96 60l-91 6l1 19l118 -9l-1 -12q0 -5 -1 -8q-3 -3 -4 -5l-81 -51l82 -6l-2 -19z" />
    <glyph glyph-name="three" unicode="3" 
d="M807 34q82 0 155 30t131 79h-570q57 -49 129 -79t155 -30zM571 189h564q45 55 70 124t25 147q0 80 -26.5 150t-80.5 139zM807 977q-104 0 -197.5 -39.5t-164 -109t-112.5 -164t-42 -204.5q0 -103 39.5 -196t108.5 -163.5t163.5 -112.5t204.5 -42q35 0 70 5.5t68 15.5
q78 23 146.5 68t119.5 109t80.5 144t29.5 172q0 101 -38.5 194.5t-107 165t-163 114.5t-205.5 43zM807 -14q-100 0 -186 38.5t-149.5 103.5t-99.5 151t-36 181q0 94 35 179.5t98 151t149.5 104t188.5 38.5q67 0 124 -17q72 -19 135 -60t110.5 -100t75 -134t27.5 -162
q0 -98 -37 -184.5t-101.5 -151t-150.5 -101.5t-183 -37zM478 730q-46 -55 -71.5 -122.5t-25.5 -147.5q0 -82 28.5 -155t77.5 -131l555 556h-564zM807 887q-83 0 -155.5 -29t-130.5 -80h566q-54 50 -126 79.5t-154 29.5zM957 -83l-90 -16l4 -26l34 6l16 -89l26 5l-16 89l31 6
zM1058 -117q-2 6 -9 8l-11 5h-15h-7h-9h-2v1q-3 3 -3 4l-2 1q2 1 2 4q0 1 1 1h2q0 1 5 1v3h1h5h3q4 0 4 1q4 0 8 1q0 2 1 3t1 2l5 10l-7 3q-8 4 -12 4q-2 0 -4.5 1t-4.5 1q-4 0 -6 -1t-4 -1l-13 -7q-2 -2 -4 -4.5t-3 -6.5q-7 -6 -7 -14v-5t2 -7q3 -8 10 -13q1 -1 3.5 -2.5
t4.5 -3.5q3 0 6.5 -1t5.5 -1h13h9h2q2 0 4 -2q3 0 3 -2h3v-5q0 -2 -0.5 -3t-0.5 -2v-1q-2 0 -3 -2.5t-2 -2.5q-2 -2 -6 -2q0 -1 -2 -1h-3q-2 0 -3 0.5t-3 0.5h-6h-8l-4 -2q-1 0 -1 -1.5t-1 -1.5l-5 -8q1 -4 3 -5.5t4 -4.5q3 -1 6.5 -2t6.5 -1q8 -3 12 -2q3 0 7 1t8 1
q3 2 6.5 3.5t7.5 4.5q4 4 5.5 6t4.5 7q1 4 3 7t2 8q0 4 -0.5 7.5t-3.5 6.5q0 8 -5 11zM1108 -122q-2 3 -4 3t-3.5 1t-3.5 1q-1 -2 -6 -2l-7 -4q-1 -1 -1 -3v-2q-2 -2 -2 -4v-2q0 -3 1 -4q0 -1 1 -1q0 -6 3 -6q2 -5 7 -5h6q5 0 7 2q1 2 3 2.5t2 2.5v2q0 2 2 2l3 3v2q0 6 -5 6
q0 6 -3 6zM831 -175q-1 0 -1 4q0 1 -1.5 1t-1.5 1q0 4 -1 4l-41 60q0 1 -2 2q-2 3 -9 3h-9h-14l3 -119l27 1v79l51 -79h25v118h-30zM584 -85l48 -18l8 25l-72 26l-42 -105l26 -12l15 41l38 -15l10 26l-37 14zM733 -114l-9 11q-3 3 -6.5 5t-7.5 4t-7 2.5t-8 2.5q-5 1 -8.5 1
h-7.5q-10 0 -14 -4q-4 -1 -7.5 -2t-7.5 -4l-11 -10q-4 -8 -10 -11q-2 -5 -3.5 -8.5t-1.5 -6.5v-18l3 -15l6 -13l11 -11q3 -4 7 -5.5t6 -3.5q7 -4 15 -4q5 -1 8.5 -1h7.5q5 0 13 2q4 2 8.5 3t6.5 4q6 2 12 10l8 11q4 7 7 17v15q0 3 -1 6.5t-3 8.5q-1 5 -2.5 7.5t-3.5 6.5z
M715 -153q0 -3 -1.5 -6.5t-3.5 -5.5q-3 -4 -4.5 -5.5l-4.5 -4.5q-3 -1 -5.5 -2t-6.5 -1q-6 -3 -11 0q-4 0 -7.5 1t-5.5 2l-8 10q-2 2 -2.5 5.5t-0.5 6.5q-3 5 0 14q0 6 5 11l6 9l13 5h11l12 -5l9 -9q2 -3 3.5 -5t1.5 -6q2 -8 0 -14zM1294 186q-1 -2 -2.5 -4t-1.5 -6
q0 -2 1.5 -4t2.5 -4l40 -58l-69 10h-10l-9 -6l-8 -16l96 -65l16 22l-46 33l60 -13l11 20l-33 50l47 -30l15 24l-98 64zM1281 59l-13 13l-15 3q-4 3 -15 3q-4 0 -7.5 -0.5t-7.5 -2.5l-13 -3q-4 -3 -8 -6.5t-7 -6.5l-4 -6t-4 -5q-3 -4 -4 -7.5t-3 -7.5q0 -4 -1 -7.5t-1 -7.5
v-7t2 -8l4 -14l10 -12l14 -10q4 -1 7 -3.5t8 -2.5q4 0 7.5 -1.5t7.5 -1.5q2 0 6 1.5t9 1.5q2 0 5.5 2.5t7.5 3.5q7 3 13 10l10 12q1 2 3 5.5t2 8.5q1 4 1 14v16l-6 12q-2 4 -4 7.5t-4 6.5zM1268 6q-4 -9 -8 -10q-7 -7 -10 -8q-3 -2 -6.5 -2h-5.5q-4 0 -7 1t-5 1l-11 8
q-4 4 -7 11q-1 4 -1 11q0 8 1 11q3 8 7 12l11 8q3 0 6 0.5t6 0.5q4 0 12 -2q2 -2 4.5 -3.5t5.5 -5.5q3 -1 4.5 -4t3.5 -6t2 -12v-5.5t-2 -5.5zM1194 -54l-7 -4q-2 0 -3 -2.5t-1 -4.5l-5 -9l-9 -6q-4 -2 -6 -3.5t-5 -1.5q-7 -3 -13 0q-2 2 -5 2.5t-6 2.5q-6 4 -7 11
q-5 2 -5 11q-4 3 0 14q0 2 0.5 4t1.5 7l4 4t5 3q7 4 9 4q3 1 10 1q2 0 10 4q2 3 5 5l2 6v9q-3 4 -12 4h-13l-14 -5l-11 -5q-2 -2 -5.5 -4.5t-6.5 -6.5q-2 -2 -4 -5.5t-4 -7.5l-6 -15v-16q0 -4 1.5 -7t1.5 -7l6 -15q3 -4 6 -6t5 -5l14 -10l12 -2q5 -2 16 -2q4 0 7 1t7 2
q5 1 8.5 3.5t6.5 5.5l5 2.5t5 4.5q3 1 5 4t5 6l4 14q4 4 4 13l-12 2h-6zM504 -14l-102 -74l16 -9q0 -1 2 -1h3q2 0 2.5 -0.5t2.5 0.5h5q3 0 4 1l11 9l39 -22l-2 -15v-5q0 -2 1 -3q0 -1 1 -1v-3q0 -2 2 -2l4 -3l16 -10l17 125zM493 -56v-2v-3l-2 -22l-18 11l16 14h2q2 0 2 1
v1v1h1q1 1 2 1zM463 -19l17 20l-69 59l-20 -21l27 -21l-58 -67l20 -18l60 69zM243 137l82 -10q2 0 6 1q2 0 2.5 0.5t2.5 0.5l11 8l-45 77l-23 -14l26 -44l-82 9q-2 0 -5.5 -0.5t-7.5 -3.5l-10 -5l45 -78l23 14zM342 29l22 19l-27 30l14 11l31 -39l21 18l-49 60l-90 -76
l51 -58l19 18l-32 37l17 11zM176 468l50 3q2 -2 4.5 -4t3.5 -4q2 -2 3.5 -5t1.5 -5q1 -7 4 -12q0 -3 0.5 -6t0.5 -5q0 -8 -0.5 -14t-3.5 -11q-1 -7 -4 -12t-7 -10q-7 -9 -19 -13q-11 -7 -22 -7h-18q-4 2 -7.5 3.5t-7.5 3.5q-4 1 -6.5 3t-5.5 4l-6 6t-5 7q-2 2 -3.5 5.5
t-3.5 7.5q-1 5 -1.5 9t-1.5 9v6.5t1 5.5q2 8 2 13q2 3 3.5 5.5t3.5 5.5q2 2 3.5 5t3.5 5l4 -4q2 -1 3 -2t2 -1q1 -3 1 -7v-4t-2 -3q-4 -5 -4 -11q-1 -5 -1 -13t3 -17q3 -4 5.5 -7t4.5 -6q5 -5 14 -7q7 -4 17 -3q6 0 12 3l4 2t4 3t4.5 3t4.5 4q1 2 2.5 4t3.5 4q0 4 1 6.5
t2 5.5q1 4 1 11q-1 3 -1.5 6.5t-2.5 7.5q0 3 -5 10l-18 -1v-5v-5q0 -2 -3 -5q-1 -1 -1.5 -2t-2.5 -2t-6 -1h-6zM249 558l-9 -76l-118 12l8 75l19 -1l-6 -56l30 -4l5 46l20 -1l-5 -46l31 -3l5 57zM149 578l-17 5l22 89l19 -5l-10 -37l97 -23l-4 -18l-97 24zM190 714l-17 9
l41 82l16 -8l-15 -32l89 -45l-8 -17l-90 45zM377 832l-11 -16l-40 30l-35 -47l41 -30l-11 -15l-97 70l11 15l40 -29l35 47l-40 30l11 16zM441 893l-54 -52l-83 86l53 53l14 -15l-39 -39l20 -21l33 31l13 -14l-32 -30l21 -23l41 39zM499 1016l10 -17l-39 -24l24 -42l-14 -11
l-63 101l63 40l9 -16l-46 -30l17 -26zM547 1016q0 -7 6 -10q1 -3 9 -7q2 -1 5 -1h5q6 -1 11 1q7 3 10 7q5 5 6 10q1 2 1 10q0 7 -1 11l-27 67l17 8l29 -68q1 -5 1.5 -9t0.5 -9q0 -10 -3 -19q-2 -4 -4.5 -7.5t-7.5 -6.5q-2 -5 -5.5 -7t-8.5 -4t-9.5 -3t-9.5 -1q-8 0 -18 4
q-5 2 -8.5 4t-6.5 6q-7 7 -10 16l-30 66l18 8zM647 1003l-29 116l20 5l22 -97l49 11l4 -20zM716 1018l-12 119l20 2l10 -98l51 5v-20zM849 1023l-19 3l12 118l44 -5q6 0 14 -4q9 -5 11 -10q4 -3 7 -13q3 -7 2 -14q-2 -4 -2.5 -7.5t-2.5 -8.5q-6 -8 -9 -11q-4 -3 -14 -7
q-3 -1 -13 -1l-25 3zM880 1082h7q3 1 7 6q3 0 3 5q2 1 4 7q0 5 -1 7t-2 3.5t-1 2.5l-3 3t-3 2t-3.5 1t-2.5 1l-25 3l-5 -39zM936 1011l-19 5l31 113l43 -11q6 0 12 -6q5 -4 9 -10q4 -5 4 -13q1 -5 0.5 -8t-0.5 -7q-2 -5 -5 -10t-6 -7q-7 -5 -10 -5q-2 -2 -4.5 -2.5
t-4.5 -1.5l22 -57l-15 2q-2 1 -3.5 2.5t-3.5 2.5q-3 1 -5 8l-19 46l-14 4zM962 1105l-9 -31l24 -6q2 0 3 -0.5t3 0.5q2 0 3.5 0.5t3.5 0.5t2 1.5t1 2.5q4 4 4 6q1 3 1 7q-1 2 -1 3.5t-1 3.5q-1 1 -2.5 1.5t-1.5 2.5q-3 3 -6 3zM1022 1048q1 4 3.5 7.5t5.5 6.5q2 3 5 5.5
t6 4.5q3 3 6.5 4t8.5 3q4 3 14 3h15q9 -1 17 -6q7 -3 14 -8q3 -4 5.5 -7t4.5 -5q2 -3 3.5 -6.5t3.5 -7.5q1 -4 2 -7.5t1 -7.5v-7.5t-2 -8.5q-1 -4 -1.5 -7.5t-3.5 -7.5l-3.5 -7l-3.5 -7q-4 -3 -7 -5t-5 -6q-4 -2 -7 -4t-7 -4q-6 0 -16 -2q-12 0 -17 1t-15 5q-11 6 -18 15
q-8 9 -13 21q-2 6 -2 11v12q0 11 6 22zM1039 1041q-2 -3 -2.5 -6t-2.5 -6v-10q0 -2 1 -5t2 -5q1 -6 4 -10q2 -2 3.5 -4t3.5 -3q3 -4 9 -6q7 -4 11 -4h11q7 0 12 1q4 4 8 4q3 2 5 4t4 3q2 3 3 5.5t3 4.5q2 4 2.5 8t1.5 9q0 4 -0.5 7.5t-0.5 7.5q-2 4 -4.5 7.5t-4.5 5.5
q-7 7 -14 10q-2 2 -5 2.5t-6 1.5h-10q-7 0 -10 -2q-4 -2 -6 -2.5t-4 -1.5l-4 -4t-3 -4q-7 -5 -7 -8zM1208 1016l9 -8q1 -2 2 -3.5t3 -3.5q0 -5 -2 -8l-27 -86l82 38q1 1 8 1q4 0 6 -3l10 -8l-117 -54l-14 11zM1264 790l-46 56l90 76l48 -56l-14 -14l-37 44l-22 -19l28 -36
l-16 -11l-27 35l-24 -21l35 -42zM1279 765l-9 16l101 61l23 -37q2 -3 2.5 -6t2.5 -8q2 -7 -2 -12q-2 -9 -5 -13l-4.5 -4.5t-6.5 -5.5q-3 -1 -5 -1.5t-5 -1.5q-3 0 -5 -1t-5 1q-4 0 -10 2q-3 1 -5 2t-4 3l-23 -59l-9 13q-4 2 -4 7q0 7 3 9l20 48l-8 12zM1366 815l-29 -16
l13 -19q3 -5 4 -6q1 0 6 -3h6q2 0 5 3q2 0 6 4q0 2 1 3t1 3q1 1 1 6q-1 1 -1 2.5t-2 3.5zM1421 695q1 1 1 8q0 3 -1 5q-2 2 -2 6q-3 0 -5 4q-2 1 -5 1q-3 1 -5 0t-2.5 -2t-1.5 -2t-2 -1.5t-2 -2.5v-7v-10v-3v-2v-10q0 -2 -0.5 -4.5t-0.5 -4.5q-4 -14 -19 -21q-4 -2 -7.5 -3
t-8.5 1q-6 0 -14 2q-3 3 -6.5 5t-5.5 6q-3 2 -5 5.5t-4 7.5q-2 10 -2 15q0 3 2 13q0 3 3 5l2 4q0 4 2 4q4 2 3 2l4 -2q3 -5 5 -6q0 -2 0.5 -3t0.5 -2q0 -4 -3 -7v-1v-7q0 -5 2 -9q0 -1 1 -2.5t2 -3.5q2 -1 3.5 -2.5t3.5 -2.5q1 -1 2.5 -1t3.5 -2h4.5t4.5 2q2 0 5 3q2 4 2 5
q1 3 1 8v7v4v12q0 8 2 13q1 2 2.5 4.5t3.5 5.5q3 2 5 3.5t6 3.5q8 3 14 2q6 0 12 -4q3 -2 6.5 -3.5t5.5 -5.5q3 -3 6 -11q2 -6 2 -10q0 -6 -1 -10q0 -4 -3 -10q-1 -2 -1 -4t-2 -4l-6 4q-3 1 -4 2.5t-3 3.5l-1.5 4.5t0.5 4.5zM1349 607l-5 18l114 34l5 -19zM1412 607h19
q6 0 14 -4q4 -1 7.5 -3.5t5.5 -4.5q3 -2 6.5 -4.5t5.5 -6.5q4 -8 8 -12q2 -8 4 -18v-15q-2 -10 -4 -15t-4 -8.5t-4 -6.5l-10 -10q-4 -4 -7.5 -5t-6.5 -3q-7 -4 -15 -4q-10 -1 -19 0q-8 0 -15 4q-2 2 -5.5 3t-7.5 4q-3 2 -5.5 5.5t-4.5 5.5q-6 5 -8 15q-2 3 -3.5 6.5
t-1.5 8.5q-1 13 1 24q5 12 10 20q7 9 18 16q5 3 11 5.5t11 2.5zM1415 588q-7 0 -10 -4q-5 -1 -10 -5q-4 -1 -6 -7q-5 -5 -5 -9q-2 -2 -2.5 -5t-1.5 -5v-11q2 -8 4 -11q0 -6 5 -9q1 -3 3 -5t3 -4q3 -1 5 -2.5t5 -2.5q2 -2 5 -2h5q5 -3 11 0q11 0 17 5q5 2 12 11q6 8 6 15
q3 7 1 16q0 6 -2 10q-2 3 -3 5l-2 4l-4 4t-4 3q-5 4 -10 5q-3 4 -11 4q-4 2 -11 0zM1362 371l2 16l96 60l-91 6l1 19l118 -9l-1 -12q0 -5 -1 -8q-3 -3 -4 -5l-81 -51l82 -6l-2 -19z" />
    <glyph glyph-name="four" unicode="4" 
d="M807 34q82 0 155 30t131 79h-570q57 -49 129 -79t155 -30zM571 189h564q45 55 70 124t25 147q0 80 -26.5 150t-80.5 139zM807 977q-104 0 -197.5 -39.5t-164 -109t-112.5 -164t-42 -204.5q0 -103 39.5 -196t108.5 -163.5t163.5 -112.5t204.5 -42q35 0 70 5.5t68 15.5
q78 23 146.5 68t119.5 109t80.5 144t29.5 172q0 101 -38.5 194.5t-107 165t-163 114.5t-205.5 43zM807 -14q-100 0 -186 38.5t-149.5 103.5t-99.5 151t-36 181q0 94 35 179.5t98 151t149.5 104t188.5 38.5q67 0 124 -17q72 -19 135 -60t110.5 -100t75 -134t27.5 -162
q0 -98 -37 -184.5t-101.5 -151t-150.5 -101.5t-183 -37zM478 730q-46 -55 -71.5 -122.5t-25.5 -147.5q0 -82 28.5 -155t77.5 -131l555 556h-564zM807 887q-83 0 -155.5 -29t-130.5 -80h566q-54 50 -126 79.5t-154 29.5zM957 -83l-90 -16l4 -26l34 6l16 -89l26 5l-16 89l31 6
zM1058 -117q-2 6 -9 8l-11 5h-15h-7h-9h-2v1q-3 3 -3 4l-2 1q2 1 2 4q0 1 1 1h2q0 1 5 1v3h1h5h3q4 0 4 1q4 0 8 1q0 2 1 3t1 2l5 10l-7 3q-8 4 -12 4q-2 0 -4.5 1t-4.5 1q-4 0 -6 -1t-4 -1l-13 -7q-2 -2 -4 -4.5t-3 -6.5q-7 -6 -7 -14v-5t2 -7q3 -8 10 -13q1 -1 3.5 -2.5
t4.5 -3.5q3 0 6.5 -1t5.5 -1h13h9h2q2 0 4 -2q3 0 3 -2h3v-5q0 -2 -0.5 -3t-0.5 -2v-1q-2 0 -3 -2.5t-2 -2.5q-2 -2 -6 -2q0 -1 -2 -1h-3q-2 0 -3 0.5t-3 0.5h-6h-8l-4 -2q-1 0 -1 -1.5t-1 -1.5l-5 -8q1 -4 3 -5.5t4 -4.5q3 -1 6.5 -2t6.5 -1q8 -3 12 -2q3 0 7 1t8 1
q3 2 6.5 3.5t7.5 4.5q4 4 5.5 6t4.5 7q1 4 3 7t2 8q0 4 -0.5 7.5t-3.5 6.5q0 8 -5 11zM1108 -122q-2 3 -4 3t-3.5 1t-3.5 1q-1 -2 -6 -2l-7 -4q-1 -1 -1 -3v-2q-2 -2 -2 -4v-2q0 -3 1 -4q0 -1 1 -1q0 -6 3 -6q2 -5 7 -5h6q5 0 7 2q1 2 3 2.5t2 2.5v2q0 2 2 2l3 3v2q0 6 -5 6
q0 6 -3 6zM831 -175q-1 0 -1 4q0 1 -1.5 1t-1.5 1q0 4 -1 4l-41 60q0 1 -2 2q-2 3 -9 3h-9h-14l3 -119l27 1v79l51 -79h25v118h-30zM584 -85l48 -18l8 25l-72 26l-42 -105l26 -12l15 41l38 -15l10 26l-37 14zM733 -114l-9 11q-3 3 -6.5 5t-7.5 4t-7 2.5t-8 2.5q-5 1 -8.5 1
h-7.5q-10 0 -14 -4q-4 -1 -7.5 -2t-7.5 -4l-11 -10q-4 -8 -10 -11q-2 -5 -3.5 -8.5t-1.5 -6.5v-18l3 -15l6 -13l11 -11q3 -4 7 -5.5t6 -3.5q7 -4 15 -4q5 -1 8.5 -1h7.5q5 0 13 2q4 2 8.5 3t6.5 4q6 2 12 10l8 11q4 7 7 17v15q0 3 -1 6.5t-3 8.5q-1 5 -2.5 7.5t-3.5 6.5z
M715 -153q0 -3 -1.5 -6.5t-3.5 -5.5q-3 -4 -4.5 -5.5l-4.5 -4.5q-3 -1 -5.5 -2t-6.5 -1q-6 -3 -11 0q-4 0 -7.5 1t-5.5 2l-8 10q-2 2 -2.5 5.5t-0.5 6.5q-3 5 0 14q0 6 5 11l6 9l13 5h11l12 -5l9 -9q2 -3 3.5 -5t1.5 -6q2 -8 0 -14zM1294 186q-1 -2 -2.5 -4t-1.5 -6
q0 -2 1.5 -4t2.5 -4l40 -58l-69 10h-10l-9 -6l-8 -16l96 -65l16 22l-46 33l60 -13l11 20l-33 50l47 -30l15 24l-98 64zM1281 59l-13 13l-15 3q-4 3 -15 3q-4 0 -7.5 -0.5t-7.5 -2.5l-13 -3q-4 -3 -8 -6.5t-7 -6.5l-4 -6t-4 -5q-3 -4 -4 -7.5t-3 -7.5q0 -4 -1 -7.5t-1 -7.5
v-7t2 -8l4 -14l10 -12l14 -10q4 -1 7 -3.5t8 -2.5q4 0 7.5 -1.5t7.5 -1.5q2 0 6 1.5t9 1.5q2 0 5.5 2.5t7.5 3.5q7 3 13 10l10 12q1 2 3 5.5t2 8.5q1 4 1 14v16l-6 12q-2 4 -4 7.5t-4 6.5zM1268 6q-4 -9 -8 -10q-7 -7 -10 -8q-3 -2 -6.5 -2h-5.5q-4 0 -7 1t-5 1l-11 8
q-4 4 -7 11q-1 4 -1 11q0 8 1 11q3 8 7 12l11 8q3 0 6 0.5t6 0.5q4 0 12 -2q2 -2 4.5 -3.5t5.5 -5.5q3 -1 4.5 -4t3.5 -6t2 -12v-5.5t-2 -5.5zM1194 -54l-7 -4q-2 0 -3 -2.5t-1 -4.5l-5 -9l-9 -6q-4 -2 -6 -3.5t-5 -1.5q-7 -3 -13 0q-2 2 -5 2.5t-6 2.5q-6 4 -7 11
q-5 2 -5 11q-4 3 0 14q0 2 0.5 4t1.5 7l4 4t5 3q7 4 9 4q3 1 10 1q2 0 10 4q2 3 5 5l2 6v9q-3 4 -12 4h-13l-14 -5l-11 -5q-2 -2 -5.5 -4.5t-6.5 -6.5q-2 -2 -4 -5.5t-4 -7.5l-6 -15v-16q0 -4 1.5 -7t1.5 -7l6 -15q3 -4 6 -6t5 -5l14 -10l12 -2q5 -2 16 -2q4 0 7 1t7 2
q5 1 8.5 3.5t6.5 5.5l5 2.5t5 4.5q3 1 5 4t5 6l4 14q4 4 4 13l-12 2h-6zM504 -14l-102 -74l16 -9q0 -1 2 -1h3q2 0 2.5 -0.5t2.5 0.5h5q3 0 4 1l11 9l39 -22l-2 -15v-5q0 -2 1 -3q0 -1 1 -1v-3q0 -2 2 -2l4 -3l16 -10l17 125zM493 -56v-2v-3l-2 -22l-18 11l16 14h2q2 0 2 1
v1v1h1q1 1 2 1zM463 -19l17 20l-69 59l-20 -21l27 -21l-58 -67l20 -18l60 69zM243 137l82 -10q2 0 6 1q2 0 2.5 0.5t2.5 0.5l11 8l-45 77l-23 -14l26 -44l-82 9q-2 0 -5.5 -0.5t-7.5 -3.5l-10 -5l45 -78l23 14zM342 29l22 19l-27 30l14 11l31 -39l21 18l-49 60l-90 -76
l51 -58l19 18l-32 37l17 11zM176 468l50 3q2 -2 4.5 -4t3.5 -4q2 -2 3.5 -5t1.5 -5q1 -7 4 -12q0 -3 0.5 -6t0.5 -5q0 -8 -0.5 -14t-3.5 -11q-1 -7 -4 -12t-7 -10q-7 -9 -19 -13q-11 -7 -22 -7h-18q-4 2 -7.5 3.5t-7.5 3.5q-4 1 -6.5 3t-5.5 4l-6 6t-5 7q-2 2 -3.5 5.5
t-3.5 7.5q-1 5 -1.5 9t-1.5 9v6.5t1 5.5q2 8 2 13q2 3 3.5 5.5t3.5 5.5q2 2 3.5 5t3.5 5l4 -4q2 -1 3 -2t2 -1q1 -3 1 -7v-4t-2 -3q-4 -5 -4 -11q-1 -5 -1 -13t3 -17q3 -4 5.5 -7t4.5 -6q5 -5 14 -7q7 -4 17 -3q6 0 12 3l4 2t4 3t4.5 3t4.5 4q1 2 2.5 4t3.5 4q0 4 1 6.5
t2 5.5q1 4 1 11q-1 3 -1.5 6.5t-2.5 7.5q0 3 -5 10l-18 -1v-5v-5q0 -2 -3 -5q-1 -1 -1.5 -2t-2.5 -2t-6 -1h-6zM249 558l-9 -76l-118 12l8 75l19 -1l-6 -56l30 -4l5 46l20 -1l-5 -46l31 -3l5 57zM149 578l-17 5l22 89l19 -5l-10 -37l97 -23l-4 -18l-97 24zM190 714l-17 9
l41 82l16 -8l-15 -32l89 -45l-8 -17l-90 45zM377 832l-11 -16l-40 30l-35 -47l41 -30l-11 -15l-97 70l11 15l40 -29l35 47l-40 30l11 16zM441 893l-54 -52l-83 86l53 53l14 -15l-39 -39l20 -21l33 31l13 -14l-32 -30l21 -23l41 39zM499 1016l10 -17l-39 -24l24 -42l-14 -11
l-63 101l63 40l9 -16l-46 -30l17 -26zM547 1016q0 -7 6 -10q1 -3 9 -7q2 -1 5 -1h5q6 -1 11 1q7 3 10 7q5 5 6 10q1 2 1 10q0 7 -1 11l-27 67l17 8l29 -68q1 -5 1.5 -9t0.5 -9q0 -10 -3 -19q-2 -4 -4.5 -7.5t-7.5 -6.5q-2 -5 -5.5 -7t-8.5 -4t-9.5 -3t-9.5 -1q-8 0 -18 4
q-5 2 -8.5 4t-6.5 6q-7 7 -10 16l-30 66l18 8zM647 1003l-29 116l20 5l22 -97l49 11l4 -20zM716 1018l-12 119l20 2l10 -98l51 5v-20zM849 1023l-19 3l12 118l44 -5q6 0 14 -4q9 -5 11 -10q4 -3 7 -13q3 -7 2 -14q-2 -4 -2.5 -7.5t-2.5 -8.5q-6 -8 -9 -11q-4 -3 -14 -7
q-3 -1 -13 -1l-25 3zM880 1082h7q3 1 7 6q3 0 3 5q2 1 4 7q0 5 -1 7t-2 3.5t-1 2.5l-3 3t-3 2t-3.5 1t-2.5 1l-25 3l-5 -39zM936 1011l-19 5l31 113l43 -11q6 0 12 -6q5 -4 9 -10q4 -5 4 -13q1 -5 0.5 -8t-0.5 -7q-2 -5 -5 -10t-6 -7q-7 -5 -10 -5q-2 -2 -4.5 -2.5
t-4.5 -1.5l22 -57l-15 2q-2 1 -3.5 2.5t-3.5 2.5q-3 1 -5 8l-19 46l-14 4zM962 1105l-9 -31l24 -6q2 0 3 -0.5t3 0.5q2 0 3.5 0.5t3.5 0.5t2 1.5t1 2.5q4 4 4 6q1 3 1 7q-1 2 -1 3.5t-1 3.5q-1 1 -2.5 1.5t-1.5 2.5q-3 3 -6 3zM1022 1048q1 4 3.5 7.5t5.5 6.5q2 3 5 5.5
t6 4.5q3 3 6.5 4t8.5 3q4 3 14 3h15q9 -1 17 -6q7 -3 14 -8q3 -4 5.5 -7t4.5 -5q2 -3 3.5 -6.5t3.5 -7.5q1 -4 2 -7.5t1 -7.5v-7.5t-2 -8.5q-1 -4 -1.5 -7.5t-3.5 -7.5l-3.5 -7l-3.5 -7q-4 -3 -7 -5t-5 -6q-4 -2 -7 -4t-7 -4q-6 0 -16 -2q-12 0 -17 1t-15 5q-11 6 -18 15
q-8 9 -13 21q-2 6 -2 11v12q0 11 6 22zM1039 1041q-2 -3 -2.5 -6t-2.5 -6v-10q0 -2 1 -5t2 -5q1 -6 4 -10q2 -2 3.5 -4t3.5 -3q3 -4 9 -6q7 -4 11 -4h11q7 0 12 1q4 4 8 4q3 2 5 4t4 3q2 3 3 5.5t3 4.5q2 4 2.5 8t1.5 9q0 4 -0.5 7.5t-0.5 7.5q-2 4 -4.5 7.5t-4.5 5.5
q-7 7 -14 10q-2 2 -5 2.5t-6 1.5h-10q-7 0 -10 -2q-4 -2 -6 -2.5t-4 -1.5l-4 -4t-3 -4q-7 -5 -7 -8zM1208 1016l9 -8q1 -2 2 -3.5t3 -3.5q0 -5 -2 -8l-27 -86l82 38q1 1 8 1q4 0 6 -3l10 -8l-117 -54l-14 11zM1264 790l-46 56l90 76l48 -56l-14 -14l-37 44l-22 -19l28 -36
l-16 -11l-27 35l-24 -21l35 -42zM1279 765l-9 16l101 61l23 -37q2 -3 2.5 -6t2.5 -8q2 -7 -2 -12q-2 -9 -5 -13l-4.5 -4.5t-6.5 -5.5q-3 -1 -5 -1.5t-5 -1.5q-3 0 -5 -1t-5 1q-4 0 -10 2q-3 1 -5 2t-4 3l-23 -59l-9 13q-4 2 -4 7q0 7 3 9l20 48l-8 12zM1366 815l-29 -16
l13 -19q3 -5 4 -6q1 0 6 -3h6q2 0 5 3q2 0 6 4q0 2 1 3t1 3q1 1 1 6q-1 1 -1 2.5t-2 3.5zM1421 695q1 1 1 8q0 3 -1 5q-2 2 -2 6q-3 0 -5 4q-2 1 -5 1q-3 1 -5 0t-2.5 -2t-1.5 -2t-2 -1.5t-2 -2.5v-7v-10v-3v-2v-10q0 -2 -0.5 -4.5t-0.5 -4.5q-4 -14 -19 -21q-4 -2 -7.5 -3
t-8.5 1q-6 0 -14 2q-3 3 -6.5 5t-5.5 6q-3 2 -5 5.5t-4 7.5q-2 10 -2 15q0 3 2 13q0 3 3 5l2 4q0 4 2 4q4 2 3 2l4 -2q3 -5 5 -6q0 -2 0.5 -3t0.5 -2q0 -4 -3 -7v-1v-7q0 -5 2 -9q0 -1 1 -2.5t2 -3.5q2 -1 3.5 -2.5t3.5 -2.5q1 -1 2.5 -1t3.5 -2h4.5t4.5 2q2 0 5 3q2 4 2 5
q1 3 1 8v7v4v12q0 8 2 13q1 2 2.5 4.5t3.5 5.5q3 2 5 3.5t6 3.5q8 3 14 2q6 0 12 -4q3 -2 6.5 -3.5t5.5 -5.5q3 -3 6 -11q2 -6 2 -10q0 -6 -1 -10q0 -4 -3 -10q-1 -2 -1 -4t-2 -4l-6 4q-3 1 -4 2.5t-3 3.5l-1.5 4.5t0.5 4.5zM1349 607l-5 18l114 34l5 -19zM1412 607h19
q6 0 14 -4q4 -1 7.5 -3.5t5.5 -4.5q3 -2 6.5 -4.5t5.5 -6.5q4 -8 8 -12q2 -8 4 -18v-15q-2 -10 -4 -15t-4 -8.5t-4 -6.5l-10 -10q-4 -4 -7.5 -5t-6.5 -3q-7 -4 -15 -4q-10 -1 -19 0q-8 0 -15 4q-2 2 -5.5 3t-7.5 4q-3 2 -5.5 5.5t-4.5 5.5q-6 5 -8 15q-2 3 -3.5 6.5
t-1.5 8.5q-1 13 1 24q5 12 10 20q7 9 18 16q5 3 11 5.5t11 2.5zM1415 588q-7 0 -10 -4q-5 -1 -10 -5q-4 -1 -6 -7q-5 -5 -5 -9q-2 -2 -2.5 -5t-1.5 -5v-11q2 -8 4 -11q0 -6 5 -9q1 -3 3 -5t3 -4q3 -1 5 -2.5t5 -2.5q2 -2 5 -2h5q5 -3 11 0q11 0 17 5q5 2 12 11q6 8 6 15
q3 7 1 16q0 6 -2 10q-2 3 -3 5l-2 4l-4 4t-4 3q-5 4 -10 5q-3 4 -11 4q-4 2 -11 0zM1362 371l2 16l96 60l-91 6l1 19l118 -9l-1 -12q0 -5 -1 -8q-3 -3 -4 -5l-81 -51l82 -6l-2 -19z" />
    <glyph glyph-name="five" unicode="5" 
d="M807 34q82 0 155 30t131 79h-570q57 -49 129 -79t155 -30zM571 189h564q45 55 70 124t25 147q0 80 -26.5 150t-80.5 139zM807 977q-104 0 -197.5 -39.5t-164 -109t-112.5 -164t-42 -204.5q0 -103 39.5 -196t108.5 -163.5t163.5 -112.5t204.5 -42q35 0 70 5.5t68 15.5
q78 23 146.5 68t119.5 109t80.5 144t29.5 172q0 101 -38.5 194.5t-107 165t-163 114.5t-205.5 43zM807 -14q-100 0 -186 38.5t-149.5 103.5t-99.5 151t-36 181q0 94 35 179.5t98 151t149.5 104t188.5 38.5q67 0 124 -17q72 -19 135 -60t110.5 -100t75 -134t27.5 -162
q0 -98 -37 -184.5t-101.5 -151t-150.5 -101.5t-183 -37zM478 730q-46 -55 -71.5 -122.5t-25.5 -147.5q0 -82 28.5 -155t77.5 -131l555 556h-564zM807 887q-83 0 -155.5 -29t-130.5 -80h566q-54 50 -126 79.5t-154 29.5zM957 -83l-90 -16l4 -26l34 6l16 -89l26 5l-16 89l31 6
zM1058 -117q-2 6 -9 8l-11 5h-15h-7h-9h-2v1q-3 3 -3 4l-2 1q2 1 2 4q0 1 1 1h2q0 1 5 1v3h1h5h3q4 0 4 1q4 0 8 1q0 2 1 3t1 2l5 10l-7 3q-8 4 -12 4q-2 0 -4.5 1t-4.5 1q-4 0 -6 -1t-4 -1l-13 -7q-2 -2 -4 -4.5t-3 -6.5q-7 -6 -7 -14v-5t2 -7q3 -8 10 -13q1 -1 3.5 -2.5
t4.5 -3.5q3 0 6.5 -1t5.5 -1h13h9h2q2 0 4 -2q3 0 3 -2h3v-5q0 -2 -0.5 -3t-0.5 -2v-1q-2 0 -3 -2.5t-2 -2.5q-2 -2 -6 -2q0 -1 -2 -1h-3q-2 0 -3 0.5t-3 0.5h-6h-8l-4 -2q-1 0 -1 -1.5t-1 -1.5l-5 -8q1 -4 3 -5.5t4 -4.5q3 -1 6.5 -2t6.5 -1q8 -3 12 -2q3 0 7 1t8 1
q3 2 6.5 3.5t7.5 4.5q4 4 5.5 6t4.5 7q1 4 3 7t2 8q0 4 -0.5 7.5t-3.5 6.5q0 8 -5 11zM1108 -122q-2 3 -4 3t-3.5 1t-3.5 1q-1 -2 -6 -2l-7 -4q-1 -1 -1 -3v-2q-2 -2 -2 -4v-2q0 -3 1 -4q0 -1 1 -1q0 -6 3 -6q2 -5 7 -5h6q5 0 7 2q1 2 3 2.5t2 2.5v2q0 2 2 2l3 3v2q0 6 -5 6
q0 6 -3 6zM831 -175q-1 0 -1 4q0 1 -1.5 1t-1.5 1q0 4 -1 4l-41 60q0 1 -2 2q-2 3 -9 3h-9h-14l3 -119l27 1v79l51 -79h25v118h-30zM584 -85l48 -18l8 25l-72 26l-42 -105l26 -12l15 41l38 -15l10 26l-37 14zM733 -114l-9 11q-3 3 -6.5 5t-7.5 4t-7 2.5t-8 2.5q-5 1 -8.5 1
h-7.5q-10 0 -14 -4q-4 -1 -7.5 -2t-7.5 -4l-11 -10q-4 -8 -10 -11q-2 -5 -3.5 -8.5t-1.5 -6.5v-18l3 -15l6 -13l11 -11q3 -4 7 -5.5t6 -3.5q7 -4 15 -4q5 -1 8.5 -1h7.5q5 0 13 2q4 2 8.5 3t6.5 4q6 2 12 10l8 11q4 7 7 17v15q0 3 -1 6.5t-3 8.5q-1 5 -2.5 7.5t-3.5 6.5z
M715 -153q0 -3 -1.5 -6.5t-3.5 -5.5q-3 -4 -4.5 -5.5l-4.5 -4.5q-3 -1 -5.5 -2t-6.5 -1q-6 -3 -11 0q-4 0 -7.5 1t-5.5 2l-8 10q-2 2 -2.5 5.5t-0.5 6.5q-3 5 0 14q0 6 5 11l6 9l13 5h11l12 -5l9 -9q2 -3 3.5 -5t1.5 -6q2 -8 0 -14zM1294 186q-1 -2 -2.5 -4t-1.5 -6
q0 -2 1.5 -4t2.5 -4l40 -58l-69 10h-10l-9 -6l-8 -16l96 -65l16 22l-46 33l60 -13l11 20l-33 50l47 -30l15 24l-98 64zM1281 59l-13 13l-15 3q-4 3 -15 3q-4 0 -7.5 -0.5t-7.5 -2.5l-13 -3q-4 -3 -8 -6.5t-7 -6.5l-4 -6t-4 -5q-3 -4 -4 -7.5t-3 -7.5q0 -4 -1 -7.5t-1 -7.5
v-7t2 -8l4 -14l10 -12l14 -10q4 -1 7 -3.5t8 -2.5q4 0 7.5 -1.5t7.5 -1.5q2 0 6 1.5t9 1.5q2 0 5.5 2.5t7.5 3.5q7 3 13 10l10 12q1 2 3 5.5t2 8.5q1 4 1 14v16l-6 12q-2 4 -4 7.5t-4 6.5zM1268 6q-4 -9 -8 -10q-7 -7 -10 -8q-3 -2 -6.5 -2h-5.5q-4 0 -7 1t-5 1l-11 8
q-4 4 -7 11q-1 4 -1 11q0 8 1 11q3 8 7 12l11 8q3 0 6 0.5t6 0.5q4 0 12 -2q2 -2 4.5 -3.5t5.5 -5.5q3 -1 4.5 -4t3.5 -6t2 -12v-5.5t-2 -5.5zM1194 -54l-7 -4q-2 0 -3 -2.5t-1 -4.5l-5 -9l-9 -6q-4 -2 -6 -3.5t-5 -1.5q-7 -3 -13 0q-2 2 -5 2.5t-6 2.5q-6 4 -7 11
q-5 2 -5 11q-4 3 0 14q0 2 0.5 4t1.5 7l4 4t5 3q7 4 9 4q3 1 10 1q2 0 10 4q2 3 5 5l2 6v9q-3 4 -12 4h-13l-14 -5l-11 -5q-2 -2 -5.5 -4.5t-6.5 -6.5q-2 -2 -4 -5.5t-4 -7.5l-6 -15v-16q0 -4 1.5 -7t1.5 -7l6 -15q3 -4 6 -6t5 -5l14 -10l12 -2q5 -2 16 -2q4 0 7 1t7 2
q5 1 8.5 3.5t6.5 5.5l5 2.5t5 4.5q3 1 5 4t5 6l4 14q4 4 4 13l-12 2h-6zM504 -14l-102 -74l16 -9q0 -1 2 -1h3q2 0 2.5 -0.5t2.5 0.5h5q3 0 4 1l11 9l39 -22l-2 -15v-5q0 -2 1 -3q0 -1 1 -1v-3q0 -2 2 -2l4 -3l16 -10l17 125zM493 -56v-2v-3l-2 -22l-18 11l16 14h2q2 0 2 1
v1v1h1q1 1 2 1zM463 -19l17 20l-69 59l-20 -21l27 -21l-58 -67l20 -18l60 69zM243 137l82 -10q2 0 6 1q2 0 2.5 0.5t2.5 0.5l11 8l-45 77l-23 -14l26 -44l-82 9q-2 0 -5.5 -0.5t-7.5 -3.5l-10 -5l45 -78l23 14zM342 29l22 19l-27 30l14 11l31 -39l21 18l-49 60l-90 -76
l51 -58l19 18l-32 37l17 11zM176 468l50 3q2 -2 4.5 -4t3.5 -4q2 -2 3.5 -5t1.5 -5q1 -7 4 -12q0 -3 0.5 -6t0.5 -5q0 -8 -0.5 -14t-3.5 -11q-1 -7 -4 -12t-7 -10q-7 -9 -19 -13q-11 -7 -22 -7h-18q-4 2 -7.5 3.5t-7.5 3.5q-4 1 -6.5 3t-5.5 4l-6 6t-5 7q-2 2 -3.5 5.5
t-3.5 7.5q-1 5 -1.5 9t-1.5 9v6.5t1 5.5q2 8 2 13q2 3 3.5 5.5t3.5 5.5q2 2 3.5 5t3.5 5l4 -4q2 -1 3 -2t2 -1q1 -3 1 -7v-4t-2 -3q-4 -5 -4 -11q-1 -5 -1 -13t3 -17q3 -4 5.5 -7t4.5 -6q5 -5 14 -7q7 -4 17 -3q6 0 12 3l4 2t4 3t4.5 3t4.5 4q1 2 2.5 4t3.5 4q0 4 1 6.5
t2 5.5q1 4 1 11q-1 3 -1.5 6.5t-2.5 7.5q0 3 -5 10l-18 -1v-5v-5q0 -2 -3 -5q-1 -1 -1.5 -2t-2.5 -2t-6 -1h-6zM249 558l-9 -76l-118 12l8 75l19 -1l-6 -56l30 -4l5 46l20 -1l-5 -46l31 -3l5 57zM149 578l-17 5l22 89l19 -5l-10 -37l97 -23l-4 -18l-97 24zM190 714l-17 9
l41 82l16 -8l-15 -32l89 -45l-8 -17l-90 45zM377 832l-11 -16l-40 30l-35 -47l41 -30l-11 -15l-97 70l11 15l40 -29l35 47l-40 30l11 16zM441 893l-54 -52l-83 86l53 53l14 -15l-39 -39l20 -21l33 31l13 -14l-32 -30l21 -23l41 39zM499 1016l10 -17l-39 -24l24 -42l-14 -11
l-63 101l63 40l9 -16l-46 -30l17 -26zM547 1016q0 -7 6 -10q1 -3 9 -7q2 -1 5 -1h5q6 -1 11 1q7 3 10 7q5 5 6 10q1 2 1 10q0 7 -1 11l-27 67l17 8l29 -68q1 -5 1.5 -9t0.5 -9q0 -10 -3 -19q-2 -4 -4.5 -7.5t-7.5 -6.5q-2 -5 -5.5 -7t-8.5 -4t-9.5 -3t-9.5 -1q-8 0 -18 4
q-5 2 -8.5 4t-6.5 6q-7 7 -10 16l-30 66l18 8zM647 1003l-29 116l20 5l22 -97l49 11l4 -20zM716 1018l-12 119l20 2l10 -98l51 5v-20zM849 1023l-19 3l12 118l44 -5q6 0 14 -4q9 -5 11 -10q4 -3 7 -13q3 -7 2 -14q-2 -4 -2.5 -7.5t-2.5 -8.5q-6 -8 -9 -11q-4 -3 -14 -7
q-3 -1 -13 -1l-25 3zM880 1082h7q3 1 7 6q3 0 3 5q2 1 4 7q0 5 -1 7t-2 3.5t-1 2.5l-3 3t-3 2t-3.5 1t-2.5 1l-25 3l-5 -39zM936 1011l-19 5l31 113l43 -11q6 0 12 -6q5 -4 9 -10q4 -5 4 -13q1 -5 0.5 -8t-0.5 -7q-2 -5 -5 -10t-6 -7q-7 -5 -10 -5q-2 -2 -4.5 -2.5
t-4.5 -1.5l22 -57l-15 2q-2 1 -3.5 2.5t-3.5 2.5q-3 1 -5 8l-19 46l-14 4zM962 1105l-9 -31l24 -6q2 0 3 -0.5t3 0.5q2 0 3.5 0.5t3.5 0.5t2 1.5t1 2.5q4 4 4 6q1 3 1 7q-1 2 -1 3.5t-1 3.5q-1 1 -2.5 1.5t-1.5 2.5q-3 3 -6 3zM1022 1048q1 4 3.5 7.5t5.5 6.5q2 3 5 5.5
t6 4.5q3 3 6.5 4t8.5 3q4 3 14 3h15q9 -1 17 -6q7 -3 14 -8q3 -4 5.5 -7t4.5 -5q2 -3 3.5 -6.5t3.5 -7.5q1 -4 2 -7.5t1 -7.5v-7.5t-2 -8.5q-1 -4 -1.5 -7.5t-3.5 -7.5l-3.5 -7l-3.5 -7q-4 -3 -7 -5t-5 -6q-4 -2 -7 -4t-7 -4q-6 0 -16 -2q-12 0 -17 1t-15 5q-11 6 -18 15
q-8 9 -13 21q-2 6 -2 11v12q0 11 6 22zM1039 1041q-2 -3 -2.5 -6t-2.5 -6v-10q0 -2 1 -5t2 -5q1 -6 4 -10q2 -2 3.5 -4t3.5 -3q3 -4 9 -6q7 -4 11 -4h11q7 0 12 1q4 4 8 4q3 2 5 4t4 3q2 3 3 5.5t3 4.5q2 4 2.5 8t1.5 9q0 4 -0.5 7.5t-0.5 7.5q-2 4 -4.5 7.5t-4.5 5.5
q-7 7 -14 10q-2 2 -5 2.5t-6 1.5h-10q-7 0 -10 -2q-4 -2 -6 -2.5t-4 -1.5l-4 -4t-3 -4q-7 -5 -7 -8zM1208 1016l9 -8q1 -2 2 -3.5t3 -3.5q0 -5 -2 -8l-27 -86l82 38q1 1 8 1q4 0 6 -3l10 -8l-117 -54l-14 11zM1264 790l-46 56l90 76l48 -56l-14 -14l-37 44l-22 -19l28 -36
l-16 -11l-27 35l-24 -21l35 -42zM1279 765l-9 16l101 61l23 -37q2 -3 2.5 -6t2.5 -8q2 -7 -2 -12q-2 -9 -5 -13l-4.5 -4.5t-6.5 -5.5q-3 -1 -5 -1.5t-5 -1.5q-3 0 -5 -1t-5 1q-4 0 -10 2q-3 1 -5 2t-4 3l-23 -59l-9 13q-4 2 -4 7q0 7 3 9l20 48l-8 12zM1366 815l-29 -16
l13 -19q3 -5 4 -6q1 0 6 -3h6q2 0 5 3q2 0 6 4q0 2 1 3t1 3q1 1 1 6q-1 1 -1 2.5t-2 3.5zM1421 695q1 1 1 8q0 3 -1 5q-2 2 -2 6q-3 0 -5 4q-2 1 -5 1q-3 1 -5 0t-2.5 -2t-1.5 -2t-2 -1.5t-2 -2.5v-7v-10v-3v-2v-10q0 -2 -0.5 -4.5t-0.5 -4.5q-4 -14 -19 -21q-4 -2 -7.5 -3
t-8.5 1q-6 0 -14 2q-3 3 -6.5 5t-5.5 6q-3 2 -5 5.5t-4 7.5q-2 10 -2 15q0 3 2 13q0 3 3 5l2 4q0 4 2 4q4 2 3 2l4 -2q3 -5 5 -6q0 -2 0.5 -3t0.5 -2q0 -4 -3 -7v-1v-7q0 -5 2 -9q0 -1 1 -2.5t2 -3.5q2 -1 3.5 -2.5t3.5 -2.5q1 -1 2.5 -1t3.5 -2h4.5t4.5 2q2 0 5 3q2 4 2 5
q1 3 1 8v7v4v12q0 8 2 13q1 2 2.5 4.5t3.5 5.5q3 2 5 3.5t6 3.5q8 3 14 2q6 0 12 -4q3 -2 6.5 -3.5t5.5 -5.5q3 -3 6 -11q2 -6 2 -10q0 -6 -1 -10q0 -4 -3 -10q-1 -2 -1 -4t-2 -4l-6 4q-3 1 -4 2.5t-3 3.5l-1.5 4.5t0.5 4.5zM1349 607l-5 18l114 34l5 -19zM1412 607h19
q6 0 14 -4q4 -1 7.5 -3.5t5.5 -4.5q3 -2 6.5 -4.5t5.5 -6.5q4 -8 8 -12q2 -8 4 -18v-15q-2 -10 -4 -15t-4 -8.5t-4 -6.5l-10 -10q-4 -4 -7.5 -5t-6.5 -3q-7 -4 -15 -4q-10 -1 -19 0q-8 0 -15 4q-2 2 -5.5 3t-7.5 4q-3 2 -5.5 5.5t-4.5 5.5q-6 5 -8 15q-2 3 -3.5 6.5
t-1.5 8.5q-1 13 1 24q5 12 10 20q7 9 18 16q5 3 11 5.5t11 2.5zM1415 588q-7 0 -10 -4q-5 -1 -10 -5q-4 -1 -6 -7q-5 -5 -5 -9q-2 -2 -2.5 -5t-1.5 -5v-11q2 -8 4 -11q0 -6 5 -9q1 -3 3 -5t3 -4q3 -1 5 -2.5t5 -2.5q2 -2 5 -2h5q5 -3 11 0q11 0 17 5q5 2 12 11q6 8 6 15
q3 7 1 16q0 6 -2 10q-2 3 -3 5l-2 4l-4 4t-4 3q-5 4 -10 5q-3 4 -11 4q-4 2 -11 0zM1362 371l2 16l96 60l-91 6l1 19l118 -9l-1 -12q0 -5 -1 -8q-3 -3 -4 -5l-81 -51l82 -6l-2 -19z" />
    <glyph glyph-name="six" unicode="6" 
d="M807 34q82 0 155 30t131 79h-570q57 -49 129 -79t155 -30zM571 189h564q45 55 70 124t25 147q0 80 -26.5 150t-80.5 139zM807 977q-104 0 -197.5 -39.5t-164 -109t-112.5 -164t-42 -204.5q0 -103 39.5 -196t108.5 -163.5t163.5 -112.5t204.5 -42q35 0 70 5.5t68 15.5
q78 23 146.5 68t119.5 109t80.5 144t29.5 172q0 101 -38.5 194.5t-107 165t-163 114.5t-205.5 43zM807 -14q-100 0 -186 38.5t-149.5 103.5t-99.5 151t-36 181q0 94 35 179.5t98 151t149.5 104t188.5 38.5q67 0 124 -17q72 -19 135 -60t110.5 -100t75 -134t27.5 -162
q0 -98 -37 -184.5t-101.5 -151t-150.5 -101.5t-183 -37zM478 730q-46 -55 -71.5 -122.5t-25.5 -147.5q0 -82 28.5 -155t77.5 -131l555 556h-564zM807 887q-83 0 -155.5 -29t-130.5 -80h566q-54 50 -126 79.5t-154 29.5zM957 -83l-90 -16l4 -26l34 6l16 -89l26 5l-16 89l31 6
zM1058 -117q-2 6 -9 8l-11 5h-15h-7h-9h-2v1q-3 3 -3 4l-2 1q2 1 2 4q0 1 1 1h2q0 1 5 1v3h1h5h3q4 0 4 1q4 0 8 1q0 2 1 3t1 2l5 10l-7 3q-8 4 -12 4q-2 0 -4.5 1t-4.5 1q-4 0 -6 -1t-4 -1l-13 -7q-2 -2 -4 -4.5t-3 -6.5q-7 -6 -7 -14v-5t2 -7q3 -8 10 -13q1 -1 3.5 -2.5
t4.5 -3.5q3 0 6.5 -1t5.5 -1h13h9h2q2 0 4 -2q3 0 3 -2h3v-5q0 -2 -0.5 -3t-0.5 -2v-1q-2 0 -3 -2.5t-2 -2.5q-2 -2 -6 -2q0 -1 -2 -1h-3q-2 0 -3 0.5t-3 0.5h-6h-8l-4 -2q-1 0 -1 -1.5t-1 -1.5l-5 -8q1 -4 3 -5.5t4 -4.5q3 -1 6.5 -2t6.5 -1q8 -3 12 -2q3 0 7 1t8 1
q3 2 6.5 3.5t7.5 4.5q4 4 5.5 6t4.5 7q1 4 3 7t2 8q0 4 -0.5 7.5t-3.5 6.5q0 8 -5 11zM1108 -122q-2 3 -4 3t-3.5 1t-3.5 1q-1 -2 -6 -2l-7 -4q-1 -1 -1 -3v-2q-2 -2 -2 -4v-2q0 -3 1 -4q0 -1 1 -1q0 -6 3 -6q2 -5 7 -5h6q5 0 7 2q1 2 3 2.5t2 2.5v2q0 2 2 2l3 3v2q0 6 -5 6
q0 6 -3 6zM831 -175q-1 0 -1 4q0 1 -1.5 1t-1.5 1q0 4 -1 4l-41 60q0 1 -2 2q-2 3 -9 3h-9h-14l3 -119l27 1v79l51 -79h25v118h-30zM584 -85l48 -18l8 25l-72 26l-42 -105l26 -12l15 41l38 -15l10 26l-37 14zM733 -114l-9 11q-3 3 -6.5 5t-7.5 4t-7 2.5t-8 2.5q-5 1 -8.5 1
h-7.5q-10 0 -14 -4q-4 -1 -7.5 -2t-7.5 -4l-11 -10q-4 -8 -10 -11q-2 -5 -3.5 -8.5t-1.5 -6.5v-18l3 -15l6 -13l11 -11q3 -4 7 -5.5t6 -3.5q7 -4 15 -4q5 -1 8.5 -1h7.5q5 0 13 2q4 2 8.5 3t6.5 4q6 2 12 10l8 11q4 7 7 17v15q0 3 -1 6.5t-3 8.5q-1 5 -2.5 7.5t-3.5 6.5z
M715 -153q0 -3 -1.5 -6.5t-3.5 -5.5q-3 -4 -4.5 -5.5l-4.5 -4.5q-3 -1 -5.5 -2t-6.5 -1q-6 -3 -11 0q-4 0 -7.5 1t-5.5 2l-8 10q-2 2 -2.5 5.5t-0.5 6.5q-3 5 0 14q0 6 5 11l6 9l13 5h11l12 -5l9 -9q2 -3 3.5 -5t1.5 -6q2 -8 0 -14zM1294 186q-1 -2 -2.5 -4t-1.5 -6
q0 -2 1.5 -4t2.5 -4l40 -58l-69 10h-10l-9 -6l-8 -16l96 -65l16 22l-46 33l60 -13l11 20l-33 50l47 -30l15 24l-98 64zM1281 59l-13 13l-15 3q-4 3 -15 3q-4 0 -7.5 -0.5t-7.5 -2.5l-13 -3q-4 -3 -8 -6.5t-7 -6.5l-4 -6t-4 -5q-3 -4 -4 -7.5t-3 -7.5q0 -4 -1 -7.5t-1 -7.5
v-7t2 -8l4 -14l10 -12l14 -10q4 -1 7 -3.5t8 -2.5q4 0 7.5 -1.5t7.5 -1.5q2 0 6 1.5t9 1.5q2 0 5.5 2.5t7.5 3.5q7 3 13 10l10 12q1 2 3 5.5t2 8.5q1 4 1 14v16l-6 12q-2 4 -4 7.5t-4 6.5zM1268 6q-4 -9 -8 -10q-7 -7 -10 -8q-3 -2 -6.5 -2h-5.5q-4 0 -7 1t-5 1l-11 8
q-4 4 -7 11q-1 4 -1 11q0 8 1 11q3 8 7 12l11 8q3 0 6 0.5t6 0.5q4 0 12 -2q2 -2 4.5 -3.5t5.5 -5.5q3 -1 4.5 -4t3.5 -6t2 -12v-5.5t-2 -5.5zM1194 -54l-7 -4q-2 0 -3 -2.5t-1 -4.5l-5 -9l-9 -6q-4 -2 -6 -3.5t-5 -1.5q-7 -3 -13 0q-2 2 -5 2.5t-6 2.5q-6 4 -7 11
q-5 2 -5 11q-4 3 0 14q0 2 0.5 4t1.5 7l4 4t5 3q7 4 9 4q3 1 10 1q2 0 10 4q2 3 5 5l2 6v9q-3 4 -12 4h-13l-14 -5l-11 -5q-2 -2 -5.5 -4.5t-6.5 -6.5q-2 -2 -4 -5.5t-4 -7.5l-6 -15v-16q0 -4 1.5 -7t1.5 -7l6 -15q3 -4 6 -6t5 -5l14 -10l12 -2q5 -2 16 -2q4 0 7 1t7 2
q5 1 8.5 3.5t6.5 5.5l5 2.5t5 4.5q3 1 5 4t5 6l4 14q4 4 4 13l-12 2h-6zM504 -14l-102 -74l16 -9q0 -1 2 -1h3q2 0 2.5 -0.5t2.5 0.5h5q3 0 4 1l11 9l39 -22l-2 -15v-5q0 -2 1 -3q0 -1 1 -1v-3q0 -2 2 -2l4 -3l16 -10l17 125zM493 -56v-2v-3l-2 -22l-18 11l16 14h2q2 0 2 1
v1v1h1q1 1 2 1zM463 -19l17 20l-69 59l-20 -21l27 -21l-58 -67l20 -18l60 69zM243 137l82 -10q2 0 6 1q2 0 2.5 0.5t2.5 0.5l11 8l-45 77l-23 -14l26 -44l-82 9q-2 0 -5.5 -0.5t-7.5 -3.5l-10 -5l45 -78l23 14zM342 29l22 19l-27 30l14 11l31 -39l21 18l-49 60l-90 -76
l51 -58l19 18l-32 37l17 11zM176 468l50 3q2 -2 4.5 -4t3.5 -4q2 -2 3.5 -5t1.5 -5q1 -7 4 -12q0 -3 0.5 -6t0.5 -5q0 -8 -0.5 -14t-3.5 -11q-1 -7 -4 -12t-7 -10q-7 -9 -19 -13q-11 -7 -22 -7h-18q-4 2 -7.5 3.5t-7.5 3.5q-4 1 -6.5 3t-5.5 4l-6 6t-5 7q-2 2 -3.5 5.5
t-3.5 7.5q-1 5 -1.5 9t-1.5 9v6.5t1 5.5q2 8 2 13q2 3 3.5 5.5t3.5 5.5q2 2 3.5 5t3.5 5l4 -4q2 -1 3 -2t2 -1q1 -3 1 -7v-4t-2 -3q-4 -5 -4 -11q-1 -5 -1 -13t3 -17q3 -4 5.5 -7t4.5 -6q5 -5 14 -7q7 -4 17 -3q6 0 12 3l4 2t4 3t4.5 3t4.5 4q1 2 2.5 4t3.5 4q0 4 1 6.5
t2 5.5q1 4 1 11q-1 3 -1.5 6.5t-2.5 7.5q0 3 -5 10l-18 -1v-5v-5q0 -2 -3 -5q-1 -1 -1.5 -2t-2.5 -2t-6 -1h-6zM249 558l-9 -76l-118 12l8 75l19 -1l-6 -56l30 -4l5 46l20 -1l-5 -46l31 -3l5 57zM149 578l-17 5l22 89l19 -5l-10 -37l97 -23l-4 -18l-97 24zM190 714l-17 9
l41 82l16 -8l-15 -32l89 -45l-8 -17l-90 45zM377 832l-11 -16l-40 30l-35 -47l41 -30l-11 -15l-97 70l11 15l40 -29l35 47l-40 30l11 16zM441 893l-54 -52l-83 86l53 53l14 -15l-39 -39l20 -21l33 31l13 -14l-32 -30l21 -23l41 39zM499 1016l10 -17l-39 -24l24 -42l-14 -11
l-63 101l63 40l9 -16l-46 -30l17 -26zM547 1016q0 -7 6 -10q1 -3 9 -7q2 -1 5 -1h5q6 -1 11 1q7 3 10 7q5 5 6 10q1 2 1 10q0 7 -1 11l-27 67l17 8l29 -68q1 -5 1.5 -9t0.5 -9q0 -10 -3 -19q-2 -4 -4.5 -7.5t-7.5 -6.5q-2 -5 -5.5 -7t-8.5 -4t-9.5 -3t-9.5 -1q-8 0 -18 4
q-5 2 -8.5 4t-6.5 6q-7 7 -10 16l-30 66l18 8zM647 1003l-29 116l20 5l22 -97l49 11l4 -20zM716 1018l-12 119l20 2l10 -98l51 5v-20zM849 1023l-19 3l12 118l44 -5q6 0 14 -4q9 -5 11 -10q4 -3 7 -13q3 -7 2 -14q-2 -4 -2.5 -7.5t-2.5 -8.5q-6 -8 -9 -11q-4 -3 -14 -7
q-3 -1 -13 -1l-25 3zM880 1082h7q3 1 7 6q3 0 3 5q2 1 4 7q0 5 -1 7t-2 3.5t-1 2.5l-3 3t-3 2t-3.5 1t-2.5 1l-25 3l-5 -39zM936 1011l-19 5l31 113l43 -11q6 0 12 -6q5 -4 9 -10q4 -5 4 -13q1 -5 0.5 -8t-0.5 -7q-2 -5 -5 -10t-6 -7q-7 -5 -10 -5q-2 -2 -4.5 -2.5
t-4.5 -1.5l22 -57l-15 2q-2 1 -3.5 2.5t-3.5 2.5q-3 1 -5 8l-19 46l-14 4zM962 1105l-9 -31l24 -6q2 0 3 -0.5t3 0.5q2 0 3.5 0.5t3.5 0.5t2 1.5t1 2.5q4 4 4 6q1 3 1 7q-1 2 -1 3.5t-1 3.5q-1 1 -2.5 1.5t-1.5 2.5q-3 3 -6 3zM1022 1048q1 4 3.5 7.5t5.5 6.5q2 3 5 5.5
t6 4.5q3 3 6.5 4t8.5 3q4 3 14 3h15q9 -1 17 -6q7 -3 14 -8q3 -4 5.5 -7t4.5 -5q2 -3 3.5 -6.5t3.5 -7.5q1 -4 2 -7.5t1 -7.5v-7.5t-2 -8.5q-1 -4 -1.5 -7.5t-3.5 -7.5l-3.5 -7l-3.5 -7q-4 -3 -7 -5t-5 -6q-4 -2 -7 -4t-7 -4q-6 0 -16 -2q-12 0 -17 1t-15 5q-11 6 -18 15
q-8 9 -13 21q-2 6 -2 11v12q0 11 6 22zM1039 1041q-2 -3 -2.5 -6t-2.5 -6v-10q0 -2 1 -5t2 -5q1 -6 4 -10q2 -2 3.5 -4t3.5 -3q3 -4 9 -6q7 -4 11 -4h11q7 0 12 1q4 4 8 4q3 2 5 4t4 3q2 3 3 5.5t3 4.5q2 4 2.5 8t1.5 9q0 4 -0.5 7.5t-0.5 7.5q-2 4 -4.5 7.5t-4.5 5.5
q-7 7 -14 10q-2 2 -5 2.5t-6 1.5h-10q-7 0 -10 -2q-4 -2 -6 -2.5t-4 -1.5l-4 -4t-3 -4q-7 -5 -7 -8zM1208 1016l9 -8q1 -2 2 -3.5t3 -3.5q0 -5 -2 -8l-27 -86l82 38q1 1 8 1q4 0 6 -3l10 -8l-117 -54l-14 11zM1264 790l-46 56l90 76l48 -56l-14 -14l-37 44l-22 -19l28 -36
l-16 -11l-27 35l-24 -21l35 -42zM1279 765l-9 16l101 61l23 -37q2 -3 2.5 -6t2.5 -8q2 -7 -2 -12q-2 -9 -5 -13l-4.5 -4.5t-6.5 -5.5q-3 -1 -5 -1.5t-5 -1.5q-3 0 -5 -1t-5 1q-4 0 -10 2q-3 1 -5 2t-4 3l-23 -59l-9 13q-4 2 -4 7q0 7 3 9l20 48l-8 12zM1366 815l-29 -16
l13 -19q3 -5 4 -6q1 0 6 -3h6q2 0 5 3q2 0 6 4q0 2 1 3t1 3q1 1 1 6q-1 1 -1 2.5t-2 3.5zM1421 695q1 1 1 8q0 3 -1 5q-2 2 -2 6q-3 0 -5 4q-2 1 -5 1q-3 1 -5 0t-2.5 -2t-1.5 -2t-2 -1.5t-2 -2.5v-7v-10v-3v-2v-10q0 -2 -0.5 -4.5t-0.5 -4.5q-4 -14 -19 -21q-4 -2 -7.5 -3
t-8.5 1q-6 0 -14 2q-3 3 -6.5 5t-5.5 6q-3 2 -5 5.5t-4 7.5q-2 10 -2 15q0 3 2 13q0 3 3 5l2 4q0 4 2 4q4 2 3 2l4 -2q3 -5 5 -6q0 -2 0.5 -3t0.5 -2q0 -4 -3 -7v-1v-7q0 -5 2 -9q0 -1 1 -2.5t2 -3.5q2 -1 3.5 -2.5t3.5 -2.5q1 -1 2.5 -1t3.5 -2h4.5t4.5 2q2 0 5 3q2 4 2 5
q1 3 1 8v7v4v12q0 8 2 13q1 2 2.5 4.5t3.5 5.5q3 2 5 3.5t6 3.5q8 3 14 2q6 0 12 -4q3 -2 6.5 -3.5t5.5 -5.5q3 -3 6 -11q2 -6 2 -10q0 -6 -1 -10q0 -4 -3 -10q-1 -2 -1 -4t-2 -4l-6 4q-3 1 -4 2.5t-3 3.5l-1.5 4.5t0.5 4.5zM1349 607l-5 18l114 34l5 -19zM1412 607h19
q6 0 14 -4q4 -1 7.5 -3.5t5.5 -4.5q3 -2 6.5 -4.5t5.5 -6.5q4 -8 8 -12q2 -8 4 -18v-15q-2 -10 -4 -15t-4 -8.5t-4 -6.5l-10 -10q-4 -4 -7.5 -5t-6.5 -3q-7 -4 -15 -4q-10 -1 -19 0q-8 0 -15 4q-2 2 -5.5 3t-7.5 4q-3 2 -5.5 5.5t-4.5 5.5q-6 5 -8 15q-2 3 -3.5 6.5
t-1.5 8.5q-1 13 1 24q5 12 10 20q7 9 18 16q5 3 11 5.5t11 2.5zM1415 588q-7 0 -10 -4q-5 -1 -10 -5q-4 -1 -6 -7q-5 -5 -5 -9q-2 -2 -2.5 -5t-1.5 -5v-11q2 -8 4 -11q0 -6 5 -9q1 -3 3 -5t3 -4q3 -1 5 -2.5t5 -2.5q2 -2 5 -2h5q5 -3 11 0q11 0 17 5q5 2 12 11q6 8 6 15
q3 7 1 16q0 6 -2 10q-2 3 -3 5l-2 4l-4 4t-4 3q-5 4 -10 5q-3 4 -11 4q-4 2 -11 0zM1362 371l2 16l96 60l-91 6l1 19l118 -9l-1 -12q0 -5 -1 -8q-3 -3 -4 -5l-81 -51l82 -6l-2 -19z" />
    <glyph glyph-name="seven" unicode="7" 
d="M807 34q82 0 155 30t131 79h-570q57 -49 129 -79t155 -30zM571 189h564q45 55 70 124t25 147q0 80 -26.5 150t-80.5 139zM807 977q-104 0 -197.5 -39.5t-164 -109t-112.5 -164t-42 -204.5q0 -103 39.5 -196t108.5 -163.5t163.5 -112.5t204.5 -42q35 0 70 5.5t68 15.5
q78 23 146.5 68t119.5 109t80.5 144t29.5 172q0 101 -38.5 194.5t-107 165t-163 114.5t-205.5 43zM807 -14q-100 0 -186 38.5t-149.5 103.5t-99.5 151t-36 181q0 94 35 179.5t98 151t149.5 104t188.5 38.5q67 0 124 -17q72 -19 135 -60t110.5 -100t75 -134t27.5 -162
q0 -98 -37 -184.5t-101.5 -151t-150.5 -101.5t-183 -37zM478 730q-46 -55 -71.5 -122.5t-25.5 -147.5q0 -82 28.5 -155t77.5 -131l555 556h-564zM807 887q-83 0 -155.5 -29t-130.5 -80h566q-54 50 -126 79.5t-154 29.5zM957 -83l-90 -16l4 -26l34 6l16 -89l26 5l-16 89l31 6
zM1058 -117q-2 6 -9 8l-11 5h-15h-7h-9h-2v1q-3 3 -3 4l-2 1q2 1 2 4q0 1 1 1h2q0 1 5 1v3h1h5h3q4 0 4 1q4 0 8 1q0 2 1 3t1 2l5 10l-7 3q-8 4 -12 4q-2 0 -4.5 1t-4.5 1q-4 0 -6 -1t-4 -1l-13 -7q-2 -2 -4 -4.5t-3 -6.5q-7 -6 -7 -14v-5t2 -7q3 -8 10 -13q1 -1 3.5 -2.5
t4.5 -3.5q3 0 6.5 -1t5.5 -1h13h9h2q2 0 4 -2q3 0 3 -2h3v-5q0 -2 -0.5 -3t-0.5 -2v-1q-2 0 -3 -2.5t-2 -2.5q-2 -2 -6 -2q0 -1 -2 -1h-3q-2 0 -3 0.5t-3 0.5h-6h-8l-4 -2q-1 0 -1 -1.5t-1 -1.5l-5 -8q1 -4 3 -5.5t4 -4.5q3 -1 6.5 -2t6.5 -1q8 -3 12 -2q3 0 7 1t8 1
q3 2 6.5 3.5t7.5 4.5q4 4 5.5 6t4.5 7q1 4 3 7t2 8q0 4 -0.5 7.5t-3.5 6.5q0 8 -5 11zM1108 -122q-2 3 -4 3t-3.5 1t-3.5 1q-1 -2 -6 -2l-7 -4q-1 -1 -1 -3v-2q-2 -2 -2 -4v-2q0 -3 1 -4q0 -1 1 -1q0 -6 3 -6q2 -5 7 -5h6q5 0 7 2q1 2 3 2.5t2 2.5v2q0 2 2 2l3 3v2q0 6 -5 6
q0 6 -3 6zM831 -175q-1 0 -1 4q0 1 -1.5 1t-1.5 1q0 4 -1 4l-41 60q0 1 -2 2q-2 3 -9 3h-9h-14l3 -119l27 1v79l51 -79h25v118h-30zM584 -85l48 -18l8 25l-72 26l-42 -105l26 -12l15 41l38 -15l10 26l-37 14zM733 -114l-9 11q-3 3 -6.5 5t-7.5 4t-7 2.5t-8 2.5q-5 1 -8.5 1
h-7.5q-10 0 -14 -4q-4 -1 -7.5 -2t-7.5 -4l-11 -10q-4 -8 -10 -11q-2 -5 -3.5 -8.5t-1.5 -6.5v-18l3 -15l6 -13l11 -11q3 -4 7 -5.5t6 -3.5q7 -4 15 -4q5 -1 8.5 -1h7.5q5 0 13 2q4 2 8.5 3t6.5 4q6 2 12 10l8 11q4 7 7 17v15q0 3 -1 6.5t-3 8.5q-1 5 -2.5 7.5t-3.5 6.5z
M715 -153q0 -3 -1.5 -6.5t-3.5 -5.5q-3 -4 -4.5 -5.5l-4.5 -4.5q-3 -1 -5.5 -2t-6.5 -1q-6 -3 -11 0q-4 0 -7.5 1t-5.5 2l-8 10q-2 2 -2.5 5.5t-0.5 6.5q-3 5 0 14q0 6 5 11l6 9l13 5h11l12 -5l9 -9q2 -3 3.5 -5t1.5 -6q2 -8 0 -14zM1294 186q-1 -2 -2.5 -4t-1.5 -6
q0 -2 1.5 -4t2.5 -4l40 -58l-69 10h-10l-9 -6l-8 -16l96 -65l16 22l-46 33l60 -13l11 20l-33 50l47 -30l15 24l-98 64zM1281 59l-13 13l-15 3q-4 3 -15 3q-4 0 -7.5 -0.5t-7.5 -2.5l-13 -3q-4 -3 -8 -6.5t-7 -6.5l-4 -6t-4 -5q-3 -4 -4 -7.5t-3 -7.5q0 -4 -1 -7.5t-1 -7.5
v-7t2 -8l4 -14l10 -12l14 -10q4 -1 7 -3.5t8 -2.5q4 0 7.5 -1.5t7.5 -1.5q2 0 6 1.5t9 1.5q2 0 5.5 2.5t7.5 3.5q7 3 13 10l10 12q1 2 3 5.5t2 8.5q1 4 1 14v16l-6 12q-2 4 -4 7.5t-4 6.5zM1268 6q-4 -9 -8 -10q-7 -7 -10 -8q-3 -2 -6.5 -2h-5.5q-4 0 -7 1t-5 1l-11 8
q-4 4 -7 11q-1 4 -1 11q0 8 1 11q3 8 7 12l11 8q3 0 6 0.5t6 0.5q4 0 12 -2q2 -2 4.5 -3.5t5.5 -5.5q3 -1 4.5 -4t3.5 -6t2 -12v-5.5t-2 -5.5zM1194 -54l-7 -4q-2 0 -3 -2.5t-1 -4.5l-5 -9l-9 -6q-4 -2 -6 -3.5t-5 -1.5q-7 -3 -13 0q-2 2 -5 2.5t-6 2.5q-6 4 -7 11
q-5 2 -5 11q-4 3 0 14q0 2 0.5 4t1.5 7l4 4t5 3q7 4 9 4q3 1 10 1q2 0 10 4q2 3 5 5l2 6v9q-3 4 -12 4h-13l-14 -5l-11 -5q-2 -2 -5.5 -4.5t-6.5 -6.5q-2 -2 -4 -5.5t-4 -7.5l-6 -15v-16q0 -4 1.5 -7t1.5 -7l6 -15q3 -4 6 -6t5 -5l14 -10l12 -2q5 -2 16 -2q4 0 7 1t7 2
q5 1 8.5 3.5t6.5 5.5l5 2.5t5 4.5q3 1 5 4t5 6l4 14q4 4 4 13l-12 2h-6zM504 -14l-102 -74l16 -9q0 -1 2 -1h3q2 0 2.5 -0.5t2.5 0.5h5q3 0 4 1l11 9l39 -22l-2 -15v-5q0 -2 1 -3q0 -1 1 -1v-3q0 -2 2 -2l4 -3l16 -10l17 125zM493 -56v-2v-3l-2 -22l-18 11l16 14h2q2 0 2 1
v1v1h1q1 1 2 1zM463 -19l17 20l-69 59l-20 -21l27 -21l-58 -67l20 -18l60 69zM243 137l82 -10q2 0 6 1q2 0 2.5 0.5t2.5 0.5l11 8l-45 77l-23 -14l26 -44l-82 9q-2 0 -5.5 -0.5t-7.5 -3.5l-10 -5l45 -78l23 14zM342 29l22 19l-27 30l14 11l31 -39l21 18l-49 60l-90 -76
l51 -58l19 18l-32 37l17 11zM176 468l50 3q2 -2 4.5 -4t3.5 -4q2 -2 3.5 -5t1.5 -5q1 -7 4 -12q0 -3 0.5 -6t0.5 -5q0 -8 -0.5 -14t-3.5 -11q-1 -7 -4 -12t-7 -10q-7 -9 -19 -13q-11 -7 -22 -7h-18q-4 2 -7.5 3.5t-7.5 3.5q-4 1 -6.5 3t-5.5 4l-6 6t-5 7q-2 2 -3.5 5.5
t-3.5 7.5q-1 5 -1.5 9t-1.5 9v6.5t1 5.5q2 8 2 13q2 3 3.5 5.5t3.5 5.5q2 2 3.5 5t3.5 5l4 -4q2 -1 3 -2t2 -1q1 -3 1 -7v-4t-2 -3q-4 -5 -4 -11q-1 -5 -1 -13t3 -17q3 -4 5.5 -7t4.5 -6q5 -5 14 -7q7 -4 17 -3q6 0 12 3l4 2t4 3t4.5 3t4.5 4q1 2 2.5 4t3.5 4q0 4 1 6.5
t2 5.5q1 4 1 11q-1 3 -1.5 6.5t-2.5 7.5q0 3 -5 10l-18 -1v-5v-5q0 -2 -3 -5q-1 -1 -1.5 -2t-2.5 -2t-6 -1h-6zM249 558l-9 -76l-118 12l8 75l19 -1l-6 -56l30 -4l5 46l20 -1l-5 -46l31 -3l5 57zM149 578l-17 5l22 89l19 -5l-10 -37l97 -23l-4 -18l-97 24zM190 714l-17 9
l41 82l16 -8l-15 -32l89 -45l-8 -17l-90 45zM377 832l-11 -16l-40 30l-35 -47l41 -30l-11 -15l-97 70l11 15l40 -29l35 47l-40 30l11 16zM441 893l-54 -52l-83 86l53 53l14 -15l-39 -39l20 -21l33 31l13 -14l-32 -30l21 -23l41 39zM499 1016l10 -17l-39 -24l24 -42l-14 -11
l-63 101l63 40l9 -16l-46 -30l17 -26zM547 1016q0 -7 6 -10q1 -3 9 -7q2 -1 5 -1h5q6 -1 11 1q7 3 10 7q5 5 6 10q1 2 1 10q0 7 -1 11l-27 67l17 8l29 -68q1 -5 1.5 -9t0.5 -9q0 -10 -3 -19q-2 -4 -4.5 -7.5t-7.5 -6.5q-2 -5 -5.5 -7t-8.5 -4t-9.5 -3t-9.5 -1q-8 0 -18 4
q-5 2 -8.5 4t-6.5 6q-7 7 -10 16l-30 66l18 8zM647 1003l-29 116l20 5l22 -97l49 11l4 -20zM716 1018l-12 119l20 2l10 -98l51 5v-20zM849 1023l-19 3l12 118l44 -5q6 0 14 -4q9 -5 11 -10q4 -3 7 -13q3 -7 2 -14q-2 -4 -2.5 -7.5t-2.5 -8.5q-6 -8 -9 -11q-4 -3 -14 -7
q-3 -1 -13 -1l-25 3zM880 1082h7q3 1 7 6q3 0 3 5q2 1 4 7q0 5 -1 7t-2 3.5t-1 2.5l-3 3t-3 2t-3.5 1t-2.5 1l-25 3l-5 -39zM936 1011l-19 5l31 113l43 -11q6 0 12 -6q5 -4 9 -10q4 -5 4 -13q1 -5 0.5 -8t-0.5 -7q-2 -5 -5 -10t-6 -7q-7 -5 -10 -5q-2 -2 -4.5 -2.5
t-4.5 -1.5l22 -57l-15 2q-2 1 -3.5 2.5t-3.5 2.5q-3 1 -5 8l-19 46l-14 4zM962 1105l-9 -31l24 -6q2 0 3 -0.5t3 0.5q2 0 3.5 0.5t3.5 0.5t2 1.5t1 2.5q4 4 4 6q1 3 1 7q-1 2 -1 3.5t-1 3.5q-1 1 -2.5 1.5t-1.5 2.5q-3 3 -6 3zM1022 1048q1 4 3.5 7.5t5.5 6.5q2 3 5 5.5
t6 4.5q3 3 6.5 4t8.5 3q4 3 14 3h15q9 -1 17 -6q7 -3 14 -8q3 -4 5.5 -7t4.5 -5q2 -3 3.5 -6.5t3.5 -7.5q1 -4 2 -7.5t1 -7.5v-7.5t-2 -8.5q-1 -4 -1.5 -7.5t-3.5 -7.5l-3.5 -7l-3.5 -7q-4 -3 -7 -5t-5 -6q-4 -2 -7 -4t-7 -4q-6 0 -16 -2q-12 0 -17 1t-15 5q-11 6 -18 15
q-8 9 -13 21q-2 6 -2 11v12q0 11 6 22zM1039 1041q-2 -3 -2.5 -6t-2.5 -6v-10q0 -2 1 -5t2 -5q1 -6 4 -10q2 -2 3.5 -4t3.5 -3q3 -4 9 -6q7 -4 11 -4h11q7 0 12 1q4 4 8 4q3 2 5 4t4 3q2 3 3 5.5t3 4.5q2 4 2.5 8t1.5 9q0 4 -0.5 7.5t-0.5 7.5q-2 4 -4.5 7.5t-4.5 5.5
q-7 7 -14 10q-2 2 -5 2.5t-6 1.5h-10q-7 0 -10 -2q-4 -2 -6 -2.5t-4 -1.5l-4 -4t-3 -4q-7 -5 -7 -8zM1208 1016l9 -8q1 -2 2 -3.5t3 -3.5q0 -5 -2 -8l-27 -86l82 38q1 1 8 1q4 0 6 -3l10 -8l-117 -54l-14 11zM1264 790l-46 56l90 76l48 -56l-14 -14l-37 44l-22 -19l28 -36
l-16 -11l-27 35l-24 -21l35 -42zM1279 765l-9 16l101 61l23 -37q2 -3 2.5 -6t2.5 -8q2 -7 -2 -12q-2 -9 -5 -13l-4.5 -4.5t-6.5 -5.5q-3 -1 -5 -1.5t-5 -1.5q-3 0 -5 -1t-5 1q-4 0 -10 2q-3 1 -5 2t-4 3l-23 -59l-9 13q-4 2 -4 7q0 7 3 9l20 48l-8 12zM1366 815l-29 -16
l13 -19q3 -5 4 -6q1 0 6 -3h6q2 0 5 3q2 0 6 4q0 2 1 3t1 3q1 1 1 6q-1 1 -1 2.5t-2 3.5zM1421 695q1 1 1 8q0 3 -1 5q-2 2 -2 6q-3 0 -5 4q-2 1 -5 1q-3 1 -5 0t-2.5 -2t-1.5 -2t-2 -1.5t-2 -2.5v-7v-10v-3v-2v-10q0 -2 -0.5 -4.5t-0.5 -4.5q-4 -14 -19 -21q-4 -2 -7.5 -3
t-8.5 1q-6 0 -14 2q-3 3 -6.5 5t-5.5 6q-3 2 -5 5.5t-4 7.5q-2 10 -2 15q0 3 2 13q0 3 3 5l2 4q0 4 2 4q4 2 3 2l4 -2q3 -5 5 -6q0 -2 0.5 -3t0.5 -2q0 -4 -3 -7v-1v-7q0 -5 2 -9q0 -1 1 -2.5t2 -3.5q2 -1 3.5 -2.5t3.5 -2.5q1 -1 2.5 -1t3.5 -2h4.5t4.5 2q2 0 5 3q2 4 2 5
q1 3 1 8v7v4v12q0 8 2 13q1 2 2.5 4.5t3.5 5.5q3 2 5 3.5t6 3.5q8 3 14 2q6 0 12 -4q3 -2 6.5 -3.5t5.5 -5.5q3 -3 6 -11q2 -6 2 -10q0 -6 -1 -10q0 -4 -3 -10q-1 -2 -1 -4t-2 -4l-6 4q-3 1 -4 2.5t-3 3.5l-1.5 4.5t0.5 4.5zM1349 607l-5 18l114 34l5 -19zM1412 607h19
q6 0 14 -4q4 -1 7.5 -3.5t5.5 -4.5q3 -2 6.5 -4.5t5.5 -6.5q4 -8 8 -12q2 -8 4 -18v-15q-2 -10 -4 -15t-4 -8.5t-4 -6.5l-10 -10q-4 -4 -7.5 -5t-6.5 -3q-7 -4 -15 -4q-10 -1 -19 0q-8 0 -15 4q-2 2 -5.5 3t-7.5 4q-3 2 -5.5 5.5t-4.5 5.5q-6 5 -8 15q-2 3 -3.5 6.5
t-1.5 8.5q-1 13 1 24q5 12 10 20q7 9 18 16q5 3 11 5.5t11 2.5zM1415 588q-7 0 -10 -4q-5 -1 -10 -5q-4 -1 -6 -7q-5 -5 -5 -9q-2 -2 -2.5 -5t-1.5 -5v-11q2 -8 4 -11q0 -6 5 -9q1 -3 3 -5t3 -4q3 -1 5 -2.5t5 -2.5q2 -2 5 -2h5q5 -3 11 0q11 0 17 5q5 2 12 11q6 8 6 15
q3 7 1 16q0 6 -2 10q-2 3 -3 5l-2 4l-4 4t-4 3q-5 4 -10 5q-3 4 -11 4q-4 2 -11 0zM1362 371l2 16l96 60l-91 6l1 19l118 -9l-1 -12q0 -5 -1 -8q-3 -3 -4 -5l-81 -51l82 -6l-2 -19z" />
    <glyph glyph-name="eight" unicode="8" 
d="M807 34q82 0 155 30t131 79h-570q57 -49 129 -79t155 -30zM571 189h564q45 55 70 124t25 147q0 80 -26.5 150t-80.5 139zM807 977q-104 0 -197.5 -39.5t-164 -109t-112.5 -164t-42 -204.5q0 -103 39.5 -196t108.5 -163.5t163.5 -112.5t204.5 -42q35 0 70 5.5t68 15.5
q78 23 146.5 68t119.5 109t80.5 144t29.5 172q0 101 -38.5 194.5t-107 165t-163 114.5t-205.5 43zM807 -14q-100 0 -186 38.5t-149.5 103.5t-99.5 151t-36 181q0 94 35 179.5t98 151t149.5 104t188.5 38.5q67 0 124 -17q72 -19 135 -60t110.5 -100t75 -134t27.5 -162
q0 -98 -37 -184.5t-101.5 -151t-150.5 -101.5t-183 -37zM478 730q-46 -55 -71.5 -122.5t-25.5 -147.5q0 -82 28.5 -155t77.5 -131l555 556h-564zM807 887q-83 0 -155.5 -29t-130.5 -80h566q-54 50 -126 79.5t-154 29.5zM957 -83l-90 -16l4 -26l34 6l16 -89l26 5l-16 89l31 6
zM1058 -117q-2 6 -9 8l-11 5h-15h-7h-9h-2v1q-3 3 -3 4l-2 1q2 1 2 4q0 1 1 1h2q0 1 5 1v3h1h5h3q4 0 4 1q4 0 8 1q0 2 1 3t1 2l5 10l-7 3q-8 4 -12 4q-2 0 -4.5 1t-4.5 1q-4 0 -6 -1t-4 -1l-13 -7q-2 -2 -4 -4.5t-3 -6.5q-7 -6 -7 -14v-5t2 -7q3 -8 10 -13q1 -1 3.5 -2.5
t4.5 -3.5q3 0 6.5 -1t5.5 -1h13h9h2q2 0 4 -2q3 0 3 -2h3v-5q0 -2 -0.5 -3t-0.5 -2v-1q-2 0 -3 -2.5t-2 -2.5q-2 -2 -6 -2q0 -1 -2 -1h-3q-2 0 -3 0.5t-3 0.5h-6h-8l-4 -2q-1 0 -1 -1.5t-1 -1.5l-5 -8q1 -4 3 -5.5t4 -4.5q3 -1 6.5 -2t6.5 -1q8 -3 12 -2q3 0 7 1t8 1
q3 2 6.5 3.5t7.5 4.5q4 4 5.5 6t4.5 7q1 4 3 7t2 8q0 4 -0.5 7.5t-3.5 6.5q0 8 -5 11zM1108 -122q-2 3 -4 3t-3.5 1t-3.5 1q-1 -2 -6 -2l-7 -4q-1 -1 -1 -3v-2q-2 -2 -2 -4v-2q0 -3 1 -4q0 -1 1 -1q0 -6 3 -6q2 -5 7 -5h6q5 0 7 2q1 2 3 2.5t2 2.5v2q0 2 2 2l3 3v2q0 6 -5 6
q0 6 -3 6zM831 -175q-1 0 -1 4q0 1 -1.5 1t-1.5 1q0 4 -1 4l-41 60q0 1 -2 2q-2 3 -9 3h-9h-14l3 -119l27 1v79l51 -79h25v118h-30zM584 -85l48 -18l8 25l-72 26l-42 -105l26 -12l15 41l38 -15l10 26l-37 14zM733 -114l-9 11q-3 3 -6.5 5t-7.5 4t-7 2.5t-8 2.5q-5 1 -8.5 1
h-7.5q-10 0 -14 -4q-4 -1 -7.5 -2t-7.5 -4l-11 -10q-4 -8 -10 -11q-2 -5 -3.5 -8.5t-1.5 -6.5v-18l3 -15l6 -13l11 -11q3 -4 7 -5.5t6 -3.5q7 -4 15 -4q5 -1 8.5 -1h7.5q5 0 13 2q4 2 8.5 3t6.5 4q6 2 12 10l8 11q4 7 7 17v15q0 3 -1 6.5t-3 8.5q-1 5 -2.5 7.5t-3.5 6.5z
M715 -153q0 -3 -1.5 -6.5t-3.5 -5.5q-3 -4 -4.5 -5.5l-4.5 -4.5q-3 -1 -5.5 -2t-6.5 -1q-6 -3 -11 0q-4 0 -7.5 1t-5.5 2l-8 10q-2 2 -2.5 5.5t-0.5 6.5q-3 5 0 14q0 6 5 11l6 9l13 5h11l12 -5l9 -9q2 -3 3.5 -5t1.5 -6q2 -8 0 -14zM1294 186q-1 -2 -2.5 -4t-1.5 -6
q0 -2 1.5 -4t2.5 -4l40 -58l-69 10h-10l-9 -6l-8 -16l96 -65l16 22l-46 33l60 -13l11 20l-33 50l47 -30l15 24l-98 64zM1281 59l-13 13l-15 3q-4 3 -15 3q-4 0 -7.5 -0.5t-7.5 -2.5l-13 -3q-4 -3 -8 -6.5t-7 -6.5l-4 -6t-4 -5q-3 -4 -4 -7.5t-3 -7.5q0 -4 -1 -7.5t-1 -7.5
v-7t2 -8l4 -14l10 -12l14 -10q4 -1 7 -3.5t8 -2.5q4 0 7.5 -1.5t7.5 -1.5q2 0 6 1.5t9 1.5q2 0 5.5 2.5t7.5 3.5q7 3 13 10l10 12q1 2 3 5.5t2 8.5q1 4 1 14v16l-6 12q-2 4 -4 7.5t-4 6.5zM1268 6q-4 -9 -8 -10q-7 -7 -10 -8q-3 -2 -6.5 -2h-5.5q-4 0 -7 1t-5 1l-11 8
q-4 4 -7 11q-1 4 -1 11q0 8 1 11q3 8 7 12l11 8q3 0 6 0.5t6 0.5q4 0 12 -2q2 -2 4.5 -3.5t5.5 -5.5q3 -1 4.5 -4t3.5 -6t2 -12v-5.5t-2 -5.5zM1194 -54l-7 -4q-2 0 -3 -2.5t-1 -4.5l-5 -9l-9 -6q-4 -2 -6 -3.5t-5 -1.5q-7 -3 -13 0q-2 2 -5 2.5t-6 2.5q-6 4 -7 11
q-5 2 -5 11q-4 3 0 14q0 2 0.5 4t1.5 7l4 4t5 3q7 4 9 4q3 1 10 1q2 0 10 4q2 3 5 5l2 6v9q-3 4 -12 4h-13l-14 -5l-11 -5q-2 -2 -5.5 -4.5t-6.5 -6.5q-2 -2 -4 -5.5t-4 -7.5l-6 -15v-16q0 -4 1.5 -7t1.5 -7l6 -15q3 -4 6 -6t5 -5l14 -10l12 -2q5 -2 16 -2q4 0 7 1t7 2
q5 1 8.5 3.5t6.5 5.5l5 2.5t5 4.5q3 1 5 4t5 6l4 14q4 4 4 13l-12 2h-6zM504 -14l-102 -74l16 -9q0 -1 2 -1h3q2 0 2.5 -0.5t2.5 0.5h5q3 0 4 1l11 9l39 -22l-2 -15v-5q0 -2 1 -3q0 -1 1 -1v-3q0 -2 2 -2l4 -3l16 -10l17 125zM493 -56v-2v-3l-2 -22l-18 11l16 14h2q2 0 2 1
v1v1h1q1 1 2 1zM463 -19l17 20l-69 59l-20 -21l27 -21l-58 -67l20 -18l60 69zM243 137l82 -10q2 0 6 1q2 0 2.5 0.5t2.5 0.5l11 8l-45 77l-23 -14l26 -44l-82 9q-2 0 -5.5 -0.5t-7.5 -3.5l-10 -5l45 -78l23 14zM342 29l22 19l-27 30l14 11l31 -39l21 18l-49 60l-90 -76
l51 -58l19 18l-32 37l17 11zM176 468l50 3q2 -2 4.5 -4t3.5 -4q2 -2 3.5 -5t1.5 -5q1 -7 4 -12q0 -3 0.5 -6t0.5 -5q0 -8 -0.5 -14t-3.5 -11q-1 -7 -4 -12t-7 -10q-7 -9 -19 -13q-11 -7 -22 -7h-18q-4 2 -7.5 3.5t-7.5 3.5q-4 1 -6.5 3t-5.5 4l-6 6t-5 7q-2 2 -3.5 5.5
t-3.5 7.5q-1 5 -1.5 9t-1.5 9v6.5t1 5.5q2 8 2 13q2 3 3.5 5.5t3.5 5.5q2 2 3.5 5t3.5 5l4 -4q2 -1 3 -2t2 -1q1 -3 1 -7v-4t-2 -3q-4 -5 -4 -11q-1 -5 -1 -13t3 -17q3 -4 5.5 -7t4.5 -6q5 -5 14 -7q7 -4 17 -3q6 0 12 3l4 2t4 3t4.5 3t4.5 4q1 2 2.5 4t3.5 4q0 4 1 6.5
t2 5.5q1 4 1 11q-1 3 -1.5 6.5t-2.5 7.5q0 3 -5 10l-18 -1v-5v-5q0 -2 -3 -5q-1 -1 -1.5 -2t-2.5 -2t-6 -1h-6zM249 558l-9 -76l-118 12l8 75l19 -1l-6 -56l30 -4l5 46l20 -1l-5 -46l31 -3l5 57zM149 578l-17 5l22 89l19 -5l-10 -37l97 -23l-4 -18l-97 24zM190 714l-17 9
l41 82l16 -8l-15 -32l89 -45l-8 -17l-90 45zM377 832l-11 -16l-40 30l-35 -47l41 -30l-11 -15l-97 70l11 15l40 -29l35 47l-40 30l11 16zM441 893l-54 -52l-83 86l53 53l14 -15l-39 -39l20 -21l33 31l13 -14l-32 -30l21 -23l41 39zM499 1016l10 -17l-39 -24l24 -42l-14 -11
l-63 101l63 40l9 -16l-46 -30l17 -26zM547 1016q0 -7 6 -10q1 -3 9 -7q2 -1 5 -1h5q6 -1 11 1q7 3 10 7q5 5 6 10q1 2 1 10q0 7 -1 11l-27 67l17 8l29 -68q1 -5 1.5 -9t0.5 -9q0 -10 -3 -19q-2 -4 -4.5 -7.5t-7.5 -6.5q-2 -5 -5.5 -7t-8.5 -4t-9.5 -3t-9.5 -1q-8 0 -18 4
q-5 2 -8.5 4t-6.5 6q-7 7 -10 16l-30 66l18 8zM647 1003l-29 116l20 5l22 -97l49 11l4 -20zM716 1018l-12 119l20 2l10 -98l51 5v-20zM849 1023l-19 3l12 118l44 -5q6 0 14 -4q9 -5 11 -10q4 -3 7 -13q3 -7 2 -14q-2 -4 -2.5 -7.5t-2.5 -8.5q-6 -8 -9 -11q-4 -3 -14 -7
q-3 -1 -13 -1l-25 3zM880 1082h7q3 1 7 6q3 0 3 5q2 1 4 7q0 5 -1 7t-2 3.5t-1 2.5l-3 3t-3 2t-3.5 1t-2.5 1l-25 3l-5 -39zM936 1011l-19 5l31 113l43 -11q6 0 12 -6q5 -4 9 -10q4 -5 4 -13q1 -5 0.5 -8t-0.5 -7q-2 -5 -5 -10t-6 -7q-7 -5 -10 -5q-2 -2 -4.5 -2.5
t-4.5 -1.5l22 -57l-15 2q-2 1 -3.5 2.5t-3.5 2.5q-3 1 -5 8l-19 46l-14 4zM962 1105l-9 -31l24 -6q2 0 3 -0.5t3 0.5q2 0 3.5 0.5t3.5 0.5t2 1.5t1 2.5q4 4 4 6q1 3 1 7q-1 2 -1 3.5t-1 3.5q-1 1 -2.5 1.5t-1.5 2.5q-3 3 -6 3zM1022 1048q1 4 3.5 7.5t5.5 6.5q2 3 5 5.5
t6 4.5q3 3 6.5 4t8.5 3q4 3 14 3h15q9 -1 17 -6q7 -3 14 -8q3 -4 5.5 -7t4.5 -5q2 -3 3.5 -6.5t3.5 -7.5q1 -4 2 -7.5t1 -7.5v-7.5t-2 -8.5q-1 -4 -1.5 -7.5t-3.5 -7.5l-3.5 -7l-3.5 -7q-4 -3 -7 -5t-5 -6q-4 -2 -7 -4t-7 -4q-6 0 -16 -2q-12 0 -17 1t-15 5q-11 6 -18 15
q-8 9 -13 21q-2 6 -2 11v12q0 11 6 22zM1039 1041q-2 -3 -2.5 -6t-2.5 -6v-10q0 -2 1 -5t2 -5q1 -6 4 -10q2 -2 3.5 -4t3.5 -3q3 -4 9 -6q7 -4 11 -4h11q7 0 12 1q4 4 8 4q3 2 5 4t4 3q2 3 3 5.5t3 4.5q2 4 2.5 8t1.5 9q0 4 -0.5 7.5t-0.5 7.5q-2 4 -4.5 7.5t-4.5 5.5
q-7 7 -14 10q-2 2 -5 2.5t-6 1.5h-10q-7 0 -10 -2q-4 -2 -6 -2.5t-4 -1.5l-4 -4t-3 -4q-7 -5 -7 -8zM1208 1016l9 -8q1 -2 2 -3.5t3 -3.5q0 -5 -2 -8l-27 -86l82 38q1 1 8 1q4 0 6 -3l10 -8l-117 -54l-14 11zM1264 790l-46 56l90 76l48 -56l-14 -14l-37 44l-22 -19l28 -36
l-16 -11l-27 35l-24 -21l35 -42zM1279 765l-9 16l101 61l23 -37q2 -3 2.5 -6t2.5 -8q2 -7 -2 -12q-2 -9 -5 -13l-4.5 -4.5t-6.5 -5.5q-3 -1 -5 -1.5t-5 -1.5q-3 0 -5 -1t-5 1q-4 0 -10 2q-3 1 -5 2t-4 3l-23 -59l-9 13q-4 2 -4 7q0 7 3 9l20 48l-8 12zM1366 815l-29 -16
l13 -19q3 -5 4 -6q1 0 6 -3h6q2 0 5 3q2 0 6 4q0 2 1 3t1 3q1 1 1 6q-1 1 -1 2.5t-2 3.5zM1421 695q1 1 1 8q0 3 -1 5q-2 2 -2 6q-3 0 -5 4q-2 1 -5 1q-3 1 -5 0t-2.5 -2t-1.5 -2t-2 -1.5t-2 -2.5v-7v-10v-3v-2v-10q0 -2 -0.5 -4.5t-0.5 -4.5q-4 -14 -19 -21q-4 -2 -7.5 -3
t-8.5 1q-6 0 -14 2q-3 3 -6.5 5t-5.5 6q-3 2 -5 5.5t-4 7.5q-2 10 -2 15q0 3 2 13q0 3 3 5l2 4q0 4 2 4q4 2 3 2l4 -2q3 -5 5 -6q0 -2 0.5 -3t0.5 -2q0 -4 -3 -7v-1v-7q0 -5 2 -9q0 -1 1 -2.5t2 -3.5q2 -1 3.5 -2.5t3.5 -2.5q1 -1 2.5 -1t3.5 -2h4.5t4.5 2q2 0 5 3q2 4 2 5
q1 3 1 8v7v4v12q0 8 2 13q1 2 2.5 4.5t3.5 5.5q3 2 5 3.5t6 3.5q8 3 14 2q6 0 12 -4q3 -2 6.5 -3.5t5.5 -5.5q3 -3 6 -11q2 -6 2 -10q0 -6 -1 -10q0 -4 -3 -10q-1 -2 -1 -4t-2 -4l-6 4q-3 1 -4 2.5t-3 3.5l-1.5 4.5t0.5 4.5zM1349 607l-5 18l114 34l5 -19zM1412 607h19
q6 0 14 -4q4 -1 7.5 -3.5t5.5 -4.5q3 -2 6.5 -4.5t5.5 -6.5q4 -8 8 -12q2 -8 4 -18v-15q-2 -10 -4 -15t-4 -8.5t-4 -6.5l-10 -10q-4 -4 -7.5 -5t-6.5 -3q-7 -4 -15 -4q-10 -1 -19 0q-8 0 -15 4q-2 2 -5.5 3t-7.5 4q-3 2 -5.5 5.5t-4.5 5.5q-6 5 -8 15q-2 3 -3.5 6.5
t-1.5 8.5q-1 13 1 24q5 12 10 20q7 9 18 16q5 3 11 5.5t11 2.5zM1415 588q-7 0 -10 -4q-5 -1 -10 -5q-4 -1 -6 -7q-5 -5 -5 -9q-2 -2 -2.5 -5t-1.5 -5v-11q2 -8 4 -11q0 -6 5 -9q1 -3 3 -5t3 -4q3 -1 5 -2.5t5 -2.5q2 -2 5 -2h5q5 -3 11 0q11 0 17 5q5 2 12 11q6 8 6 15
q3 7 1 16q0 6 -2 10q-2 3 -3 5l-2 4l-4 4t-4 3q-5 4 -10 5q-3 4 -11 4q-4 2 -11 0zM1362 371l2 16l96 60l-91 6l1 19l118 -9l-1 -12q0 -5 -1 -8q-3 -3 -4 -5l-81 -51l82 -6l-2 -19z" />
    <glyph glyph-name="nine" unicode="9" 
d="M807 34q82 0 155 30t131 79h-570q57 -49 129 -79t155 -30zM571 189h564q45 55 70 124t25 147q0 80 -26.5 150t-80.5 139zM807 977q-104 0 -197.5 -39.5t-164 -109t-112.5 -164t-42 -204.5q0 -103 39.5 -196t108.5 -163.5t163.5 -112.5t204.5 -42q35 0 70 5.5t68 15.5
q78 23 146.5 68t119.5 109t80.5 144t29.5 172q0 101 -38.5 194.5t-107 165t-163 114.5t-205.5 43zM807 -14q-100 0 -186 38.5t-149.5 103.5t-99.5 151t-36 181q0 94 35 179.5t98 151t149.5 104t188.5 38.5q67 0 124 -17q72 -19 135 -60t110.5 -100t75 -134t27.5 -162
q0 -98 -37 -184.5t-101.5 -151t-150.5 -101.5t-183 -37zM478 730q-46 -55 -71.5 -122.5t-25.5 -147.5q0 -82 28.5 -155t77.5 -131l555 556h-564zM807 887q-83 0 -155.5 -29t-130.5 -80h566q-54 50 -126 79.5t-154 29.5zM957 -83l-90 -16l4 -26l34 6l16 -89l26 5l-16 89l31 6
zM1058 -117q-2 6 -9 8l-11 5h-15h-7h-9h-2v1q-3 3 -3 4l-2 1q2 1 2 4q0 1 1 1h2q0 1 5 1v3h1h5h3q4 0 4 1q4 0 8 1q0 2 1 3t1 2l5 10l-7 3q-8 4 -12 4q-2 0 -4.5 1t-4.5 1q-4 0 -6 -1t-4 -1l-13 -7q-2 -2 -4 -4.5t-3 -6.5q-7 -6 -7 -14v-5t2 -7q3 -8 10 -13q1 -1 3.5 -2.5
t4.5 -3.5q3 0 6.5 -1t5.5 -1h13h9h2q2 0 4 -2q3 0 3 -2h3v-5q0 -2 -0.5 -3t-0.5 -2v-1q-2 0 -3 -2.5t-2 -2.5q-2 -2 -6 -2q0 -1 -2 -1h-3q-2 0 -3 0.5t-3 0.5h-6h-8l-4 -2q-1 0 -1 -1.5t-1 -1.5l-5 -8q1 -4 3 -5.5t4 -4.5q3 -1 6.5 -2t6.5 -1q8 -3 12 -2q3 0 7 1t8 1
q3 2 6.5 3.5t7.5 4.5q4 4 5.5 6t4.5 7q1 4 3 7t2 8q0 4 -0.5 7.5t-3.5 6.5q0 8 -5 11zM1108 -122q-2 3 -4 3t-3.5 1t-3.5 1q-1 -2 -6 -2l-7 -4q-1 -1 -1 -3v-2q-2 -2 -2 -4v-2q0 -3 1 -4q0 -1 1 -1q0 -6 3 -6q2 -5 7 -5h6q5 0 7 2q1 2 3 2.5t2 2.5v2q0 2 2 2l3 3v2q0 6 -5 6
q0 6 -3 6zM831 -175q-1 0 -1 4q0 1 -1.5 1t-1.5 1q0 4 -1 4l-41 60q0 1 -2 2q-2 3 -9 3h-9h-14l3 -119l27 1v79l51 -79h25v118h-30zM584 -85l48 -18l8 25l-72 26l-42 -105l26 -12l15 41l38 -15l10 26l-37 14zM733 -114l-9 11q-3 3 -6.5 5t-7.5 4t-7 2.5t-8 2.5q-5 1 -8.5 1
h-7.5q-10 0 -14 -4q-4 -1 -7.5 -2t-7.5 -4l-11 -10q-4 -8 -10 -11q-2 -5 -3.5 -8.5t-1.5 -6.5v-18l3 -15l6 -13l11 -11q3 -4 7 -5.5t6 -3.5q7 -4 15 -4q5 -1 8.5 -1h7.5q5 0 13 2q4 2 8.5 3t6.5 4q6 2 12 10l8 11q4 7 7 17v15q0 3 -1 6.5t-3 8.5q-1 5 -2.5 7.5t-3.5 6.5z
M715 -153q0 -3 -1.5 -6.5t-3.5 -5.5q-3 -4 -4.5 -5.5l-4.5 -4.5q-3 -1 -5.5 -2t-6.5 -1q-6 -3 -11 0q-4 0 -7.5 1t-5.5 2l-8 10q-2 2 -2.5 5.5t-0.5 6.5q-3 5 0 14q0 6 5 11l6 9l13 5h11l12 -5l9 -9q2 -3 3.5 -5t1.5 -6q2 -8 0 -14zM1294 186q-1 -2 -2.5 -4t-1.5 -6
q0 -2 1.5 -4t2.5 -4l40 -58l-69 10h-10l-9 -6l-8 -16l96 -65l16 22l-46 33l60 -13l11 20l-33 50l47 -30l15 24l-98 64zM1281 59l-13 13l-15 3q-4 3 -15 3q-4 0 -7.5 -0.5t-7.5 -2.5l-13 -3q-4 -3 -8 -6.5t-7 -6.5l-4 -6t-4 -5q-3 -4 -4 -7.5t-3 -7.5q0 -4 -1 -7.5t-1 -7.5
v-7t2 -8l4 -14l10 -12l14 -10q4 -1 7 -3.5t8 -2.5q4 0 7.5 -1.5t7.5 -1.5q2 0 6 1.5t9 1.5q2 0 5.5 2.5t7.5 3.5q7 3 13 10l10 12q1 2 3 5.5t2 8.5q1 4 1 14v16l-6 12q-2 4 -4 7.5t-4 6.5zM1268 6q-4 -9 -8 -10q-7 -7 -10 -8q-3 -2 -6.5 -2h-5.5q-4 0 -7 1t-5 1l-11 8
q-4 4 -7 11q-1 4 -1 11q0 8 1 11q3 8 7 12l11 8q3 0 6 0.5t6 0.5q4 0 12 -2q2 -2 4.5 -3.5t5.5 -5.5q3 -1 4.5 -4t3.5 -6t2 -12v-5.5t-2 -5.5zM1194 -54l-7 -4q-2 0 -3 -2.5t-1 -4.5l-5 -9l-9 -6q-4 -2 -6 -3.5t-5 -1.5q-7 -3 -13 0q-2 2 -5 2.5t-6 2.5q-6 4 -7 11
q-5 2 -5 11q-4 3 0 14q0 2 0.5 4t1.5 7l4 4t5 3q7 4 9 4q3 1 10 1q2 0 10 4q2 3 5 5l2 6v9q-3 4 -12 4h-13l-14 -5l-11 -5q-2 -2 -5.5 -4.5t-6.5 -6.5q-2 -2 -4 -5.5t-4 -7.5l-6 -15v-16q0 -4 1.5 -7t1.5 -7l6 -15q3 -4 6 -6t5 -5l14 -10l12 -2q5 -2 16 -2q4 0 7 1t7 2
q5 1 8.5 3.5t6.5 5.5l5 2.5t5 4.5q3 1 5 4t5 6l4 14q4 4 4 13l-12 2h-6zM504 -14l-102 -74l16 -9q0 -1 2 -1h3q2 0 2.5 -0.5t2.5 0.5h5q3 0 4 1l11 9l39 -22l-2 -15v-5q0 -2 1 -3q0 -1 1 -1v-3q0 -2 2 -2l4 -3l16 -10l17 125zM493 -56v-2v-3l-2 -22l-18 11l16 14h2q2 0 2 1
v1v1h1q1 1 2 1zM463 -19l17 20l-69 59l-20 -21l27 -21l-58 -67l20 -18l60 69zM243 137l82 -10q2 0 6 1q2 0 2.5 0.5t2.5 0.5l11 8l-45 77l-23 -14l26 -44l-82 9q-2 0 -5.5 -0.5t-7.5 -3.5l-10 -5l45 -78l23 14zM342 29l22 19l-27 30l14 11l31 -39l21 18l-49 60l-90 -76
l51 -58l19 18l-32 37l17 11zM176 468l50 3q2 -2 4.5 -4t3.5 -4q2 -2 3.5 -5t1.5 -5q1 -7 4 -12q0 -3 0.5 -6t0.5 -5q0 -8 -0.5 -14t-3.5 -11q-1 -7 -4 -12t-7 -10q-7 -9 -19 -13q-11 -7 -22 -7h-18q-4 2 -7.5 3.5t-7.5 3.5q-4 1 -6.5 3t-5.5 4l-6 6t-5 7q-2 2 -3.5 5.5
t-3.5 7.5q-1 5 -1.5 9t-1.5 9v6.5t1 5.5q2 8 2 13q2 3 3.5 5.5t3.5 5.5q2 2 3.5 5t3.5 5l4 -4q2 -1 3 -2t2 -1q1 -3 1 -7v-4t-2 -3q-4 -5 -4 -11q-1 -5 -1 -13t3 -17q3 -4 5.5 -7t4.5 -6q5 -5 14 -7q7 -4 17 -3q6 0 12 3l4 2t4 3t4.5 3t4.5 4q1 2 2.5 4t3.5 4q0 4 1 6.5
t2 5.5q1 4 1 11q-1 3 -1.5 6.5t-2.5 7.5q0 3 -5 10l-18 -1v-5v-5q0 -2 -3 -5q-1 -1 -1.5 -2t-2.5 -2t-6 -1h-6zM249 558l-9 -76l-118 12l8 75l19 -1l-6 -56l30 -4l5 46l20 -1l-5 -46l31 -3l5 57zM149 578l-17 5l22 89l19 -5l-10 -37l97 -23l-4 -18l-97 24zM190 714l-17 9
l41 82l16 -8l-15 -32l89 -45l-8 -17l-90 45zM377 832l-11 -16l-40 30l-35 -47l41 -30l-11 -15l-97 70l11 15l40 -29l35 47l-40 30l11 16zM441 893l-54 -52l-83 86l53 53l14 -15l-39 -39l20 -21l33 31l13 -14l-32 -30l21 -23l41 39zM499 1016l10 -17l-39 -24l24 -42l-14 -11
l-63 101l63 40l9 -16l-46 -30l17 -26zM547 1016q0 -7 6 -10q1 -3 9 -7q2 -1 5 -1h5q6 -1 11 1q7 3 10 7q5 5 6 10q1 2 1 10q0 7 -1 11l-27 67l17 8l29 -68q1 -5 1.5 -9t0.5 -9q0 -10 -3 -19q-2 -4 -4.5 -7.5t-7.5 -6.5q-2 -5 -5.5 -7t-8.5 -4t-9.5 -3t-9.5 -1q-8 0 -18 4
q-5 2 -8.5 4t-6.5 6q-7 7 -10 16l-30 66l18 8zM647 1003l-29 116l20 5l22 -97l49 11l4 -20zM716 1018l-12 119l20 2l10 -98l51 5v-20zM849 1023l-19 3l12 118l44 -5q6 0 14 -4q9 -5 11 -10q4 -3 7 -13q3 -7 2 -14q-2 -4 -2.5 -7.5t-2.5 -8.5q-6 -8 -9 -11q-4 -3 -14 -7
q-3 -1 -13 -1l-25 3zM880 1082h7q3 1 7 6q3 0 3 5q2 1 4 7q0 5 -1 7t-2 3.5t-1 2.5l-3 3t-3 2t-3.5 1t-2.5 1l-25 3l-5 -39zM936 1011l-19 5l31 113l43 -11q6 0 12 -6q5 -4 9 -10q4 -5 4 -13q1 -5 0.5 -8t-0.5 -7q-2 -5 -5 -10t-6 -7q-7 -5 -10 -5q-2 -2 -4.5 -2.5
t-4.5 -1.5l22 -57l-15 2q-2 1 -3.5 2.5t-3.5 2.5q-3 1 -5 8l-19 46l-14 4zM962 1105l-9 -31l24 -6q2 0 3 -0.5t3 0.5q2 0 3.5 0.5t3.5 0.5t2 1.5t1 2.5q4 4 4 6q1 3 1 7q-1 2 -1 3.5t-1 3.5q-1 1 -2.5 1.5t-1.5 2.5q-3 3 -6 3zM1022 1048q1 4 3.5 7.5t5.5 6.5q2 3 5 5.5
t6 4.5q3 3 6.5 4t8.5 3q4 3 14 3h15q9 -1 17 -6q7 -3 14 -8q3 -4 5.5 -7t4.5 -5q2 -3 3.5 -6.5t3.5 -7.5q1 -4 2 -7.5t1 -7.5v-7.5t-2 -8.5q-1 -4 -1.5 -7.5t-3.5 -7.5l-3.5 -7l-3.5 -7q-4 -3 -7 -5t-5 -6q-4 -2 -7 -4t-7 -4q-6 0 -16 -2q-12 0 -17 1t-15 5q-11 6 -18 15
q-8 9 -13 21q-2 6 -2 11v12q0 11 6 22zM1039 1041q-2 -3 -2.5 -6t-2.5 -6v-10q0 -2 1 -5t2 -5q1 -6 4 -10q2 -2 3.5 -4t3.5 -3q3 -4 9 -6q7 -4 11 -4h11q7 0 12 1q4 4 8 4q3 2 5 4t4 3q2 3 3 5.5t3 4.5q2 4 2.5 8t1.5 9q0 4 -0.5 7.5t-0.5 7.5q-2 4 -4.5 7.5t-4.5 5.5
q-7 7 -14 10q-2 2 -5 2.5t-6 1.5h-10q-7 0 -10 -2q-4 -2 -6 -2.5t-4 -1.5l-4 -4t-3 -4q-7 -5 -7 -8zM1208 1016l9 -8q1 -2 2 -3.5t3 -3.5q0 -5 -2 -8l-27 -86l82 38q1 1 8 1q4 0 6 -3l10 -8l-117 -54l-14 11zM1264 790l-46 56l90 76l48 -56l-14 -14l-37 44l-22 -19l28 -36
l-16 -11l-27 35l-24 -21l35 -42zM1279 765l-9 16l101 61l23 -37q2 -3 2.5 -6t2.5 -8q2 -7 -2 -12q-2 -9 -5 -13l-4.5 -4.5t-6.5 -5.5q-3 -1 -5 -1.5t-5 -1.5q-3 0 -5 -1t-5 1q-4 0 -10 2q-3 1 -5 2t-4 3l-23 -59l-9 13q-4 2 -4 7q0 7 3 9l20 48l-8 12zM1366 815l-29 -16
l13 -19q3 -5 4 -6q1 0 6 -3h6q2 0 5 3q2 0 6 4q0 2 1 3t1 3q1 1 1 6q-1 1 -1 2.5t-2 3.5zM1421 695q1 1 1 8q0 3 -1 5q-2 2 -2 6q-3 0 -5 4q-2 1 -5 1q-3 1 -5 0t-2.5 -2t-1.5 -2t-2 -1.5t-2 -2.5v-7v-10v-3v-2v-10q0 -2 -0.5 -4.5t-0.5 -4.5q-4 -14 -19 -21q-4 -2 -7.5 -3
t-8.5 1q-6 0 -14 2q-3 3 -6.5 5t-5.5 6q-3 2 -5 5.5t-4 7.5q-2 10 -2 15q0 3 2 13q0 3 3 5l2 4q0 4 2 4q4 2 3 2l4 -2q3 -5 5 -6q0 -2 0.5 -3t0.5 -2q0 -4 -3 -7v-1v-7q0 -5 2 -9q0 -1 1 -2.5t2 -3.5q2 -1 3.5 -2.5t3.5 -2.5q1 -1 2.5 -1t3.5 -2h4.5t4.5 2q2 0 5 3q2 4 2 5
q1 3 1 8v7v4v12q0 8 2 13q1 2 2.5 4.5t3.5 5.5q3 2 5 3.5t6 3.5q8 3 14 2q6 0 12 -4q3 -2 6.5 -3.5t5.5 -5.5q3 -3 6 -11q2 -6 2 -10q0 -6 -1 -10q0 -4 -3 -10q-1 -2 -1 -4t-2 -4l-6 4q-3 1 -4 2.5t-3 3.5l-1.5 4.5t0.5 4.5zM1349 607l-5 18l114 34l5 -19zM1412 607h19
q6 0 14 -4q4 -1 7.5 -3.5t5.5 -4.5q3 -2 6.5 -4.5t5.5 -6.5q4 -8 8 -12q2 -8 4 -18v-15q-2 -10 -4 -15t-4 -8.5t-4 -6.5l-10 -10q-4 -4 -7.5 -5t-6.5 -3q-7 -4 -15 -4q-10 -1 -19 0q-8 0 -15 4q-2 2 -5.5 3t-7.5 4q-3 2 -5.5 5.5t-4.5 5.5q-6 5 -8 15q-2 3 -3.5 6.5
t-1.5 8.5q-1 13 1 24q5 12 10 20q7 9 18 16q5 3 11 5.5t11 2.5zM1415 588q-7 0 -10 -4q-5 -1 -10 -5q-4 -1 -6 -7q-5 -5 -5 -9q-2 -2 -2.5 -5t-1.5 -5v-11q2 -8 4 -11q0 -6 5 -9q1 -3 3 -5t3 -4q3 -1 5 -2.5t5 -2.5q2 -2 5 -2h5q5 -3 11 0q11 0 17 5q5 2 12 11q6 8 6 15
q3 7 1 16q0 6 -2 10q-2 3 -3 5l-2 4l-4 4t-4 3q-5 4 -10 5q-3 4 -11 4q-4 2 -11 0zM1362 371l2 16l96 60l-91 6l1 19l118 -9l-1 -12q0 -5 -1 -8q-3 -3 -4 -5l-81 -51l82 -6l-2 -19z" />
    <glyph glyph-name="colon" unicode=":" horiz-adv-x="574" 
d="M369 81q0 -13 -16.5 -32.5t-41 -38t-53 -32t-52.5 -13.5q-33 0 -64 26t-55 60t-38 67.5t-14 47.5q0 29 9 55.5t26.5 47t42 32.5t56.5 12q46 0 83 -17.5t63 -49t40 -74t14 -91.5zM223 689q0 19 12.5 44.5t35 48.5t53 39.5t67.5 16.5q36 0 60.5 -16.5t39.5 -42t21.5 -57
t6.5 -61.5q0 -31 -11 -59t-31 -49.5t-48.5 -34.5t-64.5 -13q-20 0 -44.5 21t-46 50.5t-36 61t-14.5 51.5z" />
    <glyph glyph-name="semicolon" unicode=";" horiz-adv-x="517" 
d="M343 80q0 -41 -25.5 -88t-66.5 -88t-93 -71.5t-106 -38.5l-38 41q9 7 26.5 22t34.5 34.5t29.5 42.5t12.5 47q0 16 -10.5 33t-23.5 36.5t-23.5 41t-10.5 47.5q0 27 8.5 52t24.5 44t39 30.5t53 11.5q43 0 75 -16.5t53 -43.5t31 -62.5t10 -74.5zM310 588q-13 6 -27 22.5
t-26 38.5t-20 47.5t-8 51.5q0 9 11 24.5t27.5 31t36.5 26.5t38 11q32 0 59.5 -16.5t47 -41t30.5 -52t11 -49.5q0 -23 -7.5 -43.5t-21 -36t-33 -25t-44.5 -9.5q-34 0 -74 20z" />
    <glyph glyph-name="less" unicode="&#x3c;" horiz-adv-x="966" 
d="M958 696q-82 -44 -154.5 -78.5t-137 -65t-121.5 -60t-108 -62.5q14 -18 37.5 -39t51.5 -43t58.5 -44t58 -41.5t50 -35t35.5 -24.5q0 -9 -11.5 -23t-29 -31t-39 -34t-41 -31t-35.5 -22.5t-23 -8.5q-36 19 -78.5 50t-85.5 68.5t-84 80t-75.5 85.5t-59.5 83.5t-35 75.5
q15 30 68 68t126.5 77t157.5 76.5t161.5 68.5t138 52.5t86.5 28.5z" />
    <glyph glyph-name="equal" unicode="=" horiz-adv-x="1216" 
d="M1167 595q-97 -15 -191 -21.5t-187 -8t-186 1.5t-188 8q-31 1 -60 3t-49.5 12t-28 31t4.5 61q13 36 68.5 58.5t137.5 34t182 13.5t201.5 -3.5t196.5 -17.5t167 -27q-1 -3 -11 -21.5t-22 -42t-22.5 -46.5t-12.5 -35zM987 270q-97 -15 -191.5 -22t-187.5 -8t-186 2t-187 8
q-31 1 -60 3t-49.5 12t-28 31t4.5 61q10 27 44 46.5t86 32t118 19.5t139.5 8.5t151 -1.5t151.5 -9.5t141.5 -16t121.5 -21.5q-1 -3 -11 -21.5t-22 -42t-22.5 -46.5t-12.5 -35z" />
    <glyph glyph-name="greater" unicode="&#x3e;" horiz-adv-x="1021" 
d="M71 224q82 44 154.5 78.5t137 65t121.5 60t108 62.5q-14 17 -37.5 38.5t-51.5 43.5t-58.5 44t-58 41.5t-50 35t-35.5 24.5v22.5t3.5 31.5t13 34t29.5 31t52 22.5t81 8.5q36 -19 81 -46t92 -59.5t92.5 -68.5t84 -73t66 -74.5t37.5 -71.5q-11 -23 -46 -52t-85 -61.5
t-112 -66.5t-126.5 -66.5t-128.5 -62t-118.5 -53t-96 -39t-60.5 -20.5z" />
    <glyph glyph-name="question" unicode="?" horiz-adv-x="957" 
d="M318 913q-17 0 -27.5 16.5t-16.5 41t-8 52.5t-2 51q0 47 17 95t46 92t68 82t83 66.5t90.5 44.5t91.5 16q88 0 162.5 -25t128.5 -72.5t84 -117t30 -157.5q0 -46 -23 -90.5t-62 -89t-89.5 -89t-105.5 -89.5t-110.5 -91t-103.5 -93.5t-86 -97t-57 -101.5q-33 6 -56 22
t-37 34t-20.5 33.5t-6.5 18.5q2 27 27.5 76t68.5 111t100.5 132t122.5 137.5t135 127.5t138 103q8 5 8 8q0 8 -18.5 16t-40.5 14t-40 10t-17 4q-73 0 -117 -21.5t-73 -54t-50.5 -70t-49.5 -70t-70.5 -54t-113.5 -21.5zM90 152q0 22 15 53t42 58.5t64 47t81 19.5
q31 0 54 -14.5t38.5 -39t23.5 -56t8 -64.5q0 -36 -9.5 -71.5t-28.5 -63.5t-48 -45.5t-68 -17.5q-24 0 -54 21t-56 51.5t-44 64t-18 57.5z" />
    <glyph glyph-name="at" unicode="@" 
d="M807 34q82 0 155 30t131 79h-570q57 -49 129 -79t155 -30zM571 189h564q45 55 70 124t25 147q0 80 -26.5 150t-80.5 139zM807 977q-104 0 -197.5 -39.5t-164 -109t-112.5 -164t-42 -204.5q0 -103 39.5 -196t108.5 -163.5t163.5 -112.5t204.5 -42q35 0 70 5.5t68 15.5
q78 23 146.5 68t119.5 109t80.5 144t29.5 172q0 101 -38.5 194.5t-107 165t-163 114.5t-205.5 43zM807 -14q-100 0 -186 38.5t-149.5 103.5t-99.5 151t-36 181q0 94 35 179.5t98 151t149.5 104t188.5 38.5q67 0 124 -17q72 -19 135 -60t110.5 -100t75 -134t27.5 -162
q0 -98 -37 -184.5t-101.5 -151t-150.5 -101.5t-183 -37zM478 730q-46 -55 -71.5 -122.5t-25.5 -147.5q0 -82 28.5 -155t77.5 -131l555 556h-564zM807 887q-83 0 -155.5 -29t-130.5 -80h566q-54 50 -126 79.5t-154 29.5zM957 -83l-90 -16l4 -26l34 6l16 -89l26 5l-16 89l31 6
zM1058 -117q-2 6 -9 8l-11 5h-15h-7h-9h-2v1q-3 3 -3 4l-2 1q2 1 2 4q0 1 1 1h2q0 1 5 1v3h1h5h3q4 0 4 1q4 0 8 1q0 2 1 3t1 2l5 10l-7 3q-8 4 -12 4q-2 0 -4.5 1t-4.5 1q-4 0 -6 -1t-4 -1l-13 -7q-2 -2 -4 -4.5t-3 -6.5q-7 -6 -7 -14v-5t2 -7q3 -8 10 -13q1 -1 3.5 -2.5
t4.5 -3.5q3 0 6.5 -1t5.5 -1h13h9h2q2 0 4 -2q3 0 3 -2h3v-5q0 -2 -0.5 -3t-0.5 -2v-1q-2 0 -3 -2.5t-2 -2.5q-2 -2 -6 -2q0 -1 -2 -1h-3q-2 0 -3 0.5t-3 0.5h-6h-8l-4 -2q-1 0 -1 -1.5t-1 -1.5l-5 -8q1 -4 3 -5.5t4 -4.5q3 -1 6.5 -2t6.5 -1q8 -3 12 -2q3 0 7 1t8 1
q3 2 6.5 3.5t7.5 4.5q4 4 5.5 6t4.5 7q1 4 3 7t2 8q0 4 -0.5 7.5t-3.5 6.5q0 8 -5 11zM1108 -122q-2 3 -4 3t-3.5 1t-3.5 1q-1 -2 -6 -2l-7 -4q-1 -1 -1 -3v-2q-2 -2 -2 -4v-2q0 -3 1 -4q0 -1 1 -1q0 -6 3 -6q2 -5 7 -5h6q5 0 7 2q1 2 3 2.5t2 2.5v2q0 2 2 2l3 3v2q0 6 -5 6
q0 6 -3 6zM831 -175q-1 0 -1 4q0 1 -1.5 1t-1.5 1q0 4 -1 4l-41 60q0 1 -2 2q-2 3 -9 3h-9h-14l3 -119l27 1v79l51 -79h25v118h-30zM584 -85l48 -18l8 25l-72 26l-42 -105l26 -12l15 41l38 -15l10 26l-37 14zM733 -114l-9 11q-3 3 -6.5 5t-7.5 4t-7 2.5t-8 2.5q-5 1 -8.5 1
h-7.5q-10 0 -14 -4q-4 -1 -7.5 -2t-7.5 -4l-11 -10q-4 -8 -10 -11q-2 -5 -3.5 -8.5t-1.5 -6.5v-18l3 -15l6 -13l11 -11q3 -4 7 -5.5t6 -3.5q7 -4 15 -4q5 -1 8.5 -1h7.5q5 0 13 2q4 2 8.5 3t6.5 4q6 2 12 10l8 11q4 7 7 17v15q0 3 -1 6.5t-3 8.5q-1 5 -2.5 7.5t-3.5 6.5z
M715 -153q0 -3 -1.5 -6.5t-3.5 -5.5q-3 -4 -4.5 -5.5l-4.5 -4.5q-3 -1 -5.5 -2t-6.5 -1q-6 -3 -11 0q-4 0 -7.5 1t-5.5 2l-8 10q-2 2 -2.5 5.5t-0.5 6.5q-3 5 0 14q0 6 5 11l6 9l13 5h11l12 -5l9 -9q2 -3 3.5 -5t1.5 -6q2 -8 0 -14zM1294 186q-1 -2 -2.5 -4t-1.5 -6
q0 -2 1.5 -4t2.5 -4l40 -58l-69 10h-10l-9 -6l-8 -16l96 -65l16 22l-46 33l60 -13l11 20l-33 50l47 -30l15 24l-98 64zM1281 59l-13 13l-15 3q-4 3 -15 3q-4 0 -7.5 -0.5t-7.5 -2.5l-13 -3q-4 -3 -8 -6.5t-7 -6.5l-4 -6t-4 -5q-3 -4 -4 -7.5t-3 -7.5q0 -4 -1 -7.5t-1 -7.5
v-7t2 -8l4 -14l10 -12l14 -10q4 -1 7 -3.5t8 -2.5q4 0 7.5 -1.5t7.5 -1.5q2 0 6 1.5t9 1.5q2 0 5.5 2.5t7.5 3.5q7 3 13 10l10 12q1 2 3 5.5t2 8.5q1 4 1 14v16l-6 12q-2 4 -4 7.5t-4 6.5zM1268 6q-4 -9 -8 -10q-7 -7 -10 -8q-3 -2 -6.5 -2h-5.5q-4 0 -7 1t-5 1l-11 8
q-4 4 -7 11q-1 4 -1 11q0 8 1 11q3 8 7 12l11 8q3 0 6 0.5t6 0.5q4 0 12 -2q2 -2 4.5 -3.5t5.5 -5.5q3 -1 4.5 -4t3.5 -6t2 -12v-5.5t-2 -5.5zM1194 -54l-7 -4q-2 0 -3 -2.5t-1 -4.5l-5 -9l-9 -6q-4 -2 -6 -3.5t-5 -1.5q-7 -3 -13 0q-2 2 -5 2.5t-6 2.5q-6 4 -7 11
q-5 2 -5 11q-4 3 0 14q0 2 0.5 4t1.5 7l4 4t5 3q7 4 9 4q3 1 10 1q2 0 10 4q2 3 5 5l2 6v9q-3 4 -12 4h-13l-14 -5l-11 -5q-2 -2 -5.5 -4.5t-6.5 -6.5q-2 -2 -4 -5.5t-4 -7.5l-6 -15v-16q0 -4 1.5 -7t1.5 -7l6 -15q3 -4 6 -6t5 -5l14 -10l12 -2q5 -2 16 -2q4 0 7 1t7 2
q5 1 8.5 3.5t6.5 5.5l5 2.5t5 4.5q3 1 5 4t5 6l4 14q4 4 4 13l-12 2h-6zM504 -14l-102 -74l16 -9q0 -1 2 -1h3q2 0 2.5 -0.5t2.5 0.5h5q3 0 4 1l11 9l39 -22l-2 -15v-5q0 -2 1 -3q0 -1 1 -1v-3q0 -2 2 -2l4 -3l16 -10l17 125zM493 -56v-2v-3l-2 -22l-18 11l16 14h2q2 0 2 1
v1v1h1q1 1 2 1zM463 -19l17 20l-69 59l-20 -21l27 -21l-58 -67l20 -18l60 69zM243 137l82 -10q2 0 6 1q2 0 2.5 0.5t2.5 0.5l11 8l-45 77l-23 -14l26 -44l-82 9q-2 0 -5.5 -0.5t-7.5 -3.5l-10 -5l45 -78l23 14zM342 29l22 19l-27 30l14 11l31 -39l21 18l-49 60l-90 -76
l51 -58l19 18l-32 37l17 11zM176 468l50 3q2 -2 4.5 -4t3.5 -4q2 -2 3.5 -5t1.5 -5q1 -7 4 -12q0 -3 0.5 -6t0.5 -5q0 -8 -0.5 -14t-3.5 -11q-1 -7 -4 -12t-7 -10q-7 -9 -19 -13q-11 -7 -22 -7h-18q-4 2 -7.5 3.5t-7.5 3.5q-4 1 -6.5 3t-5.5 4l-6 6t-5 7q-2 2 -3.5 5.5
t-3.5 7.5q-1 5 -1.5 9t-1.5 9v6.5t1 5.5q2 8 2 13q2 3 3.5 5.5t3.5 5.5q2 2 3.5 5t3.5 5l4 -4q2 -1 3 -2t2 -1q1 -3 1 -7v-4t-2 -3q-4 -5 -4 -11q-1 -5 -1 -13t3 -17q3 -4 5.5 -7t4.5 -6q5 -5 14 -7q7 -4 17 -3q6 0 12 3l4 2t4 3t4.5 3t4.5 4q1 2 2.5 4t3.5 4q0 4 1 6.5
t2 5.5q1 4 1 11q-1 3 -1.5 6.5t-2.5 7.5q0 3 -5 10l-18 -1v-5v-5q0 -2 -3 -5q-1 -1 -1.5 -2t-2.5 -2t-6 -1h-6zM249 558l-9 -76l-118 12l8 75l19 -1l-6 -56l30 -4l5 46l20 -1l-5 -46l31 -3l5 57zM149 578l-17 5l22 89l19 -5l-10 -37l97 -23l-4 -18l-97 24zM190 714l-17 9
l41 82l16 -8l-15 -32l89 -45l-8 -17l-90 45zM377 832l-11 -16l-40 30l-35 -47l41 -30l-11 -15l-97 70l11 15l40 -29l35 47l-40 30l11 16zM441 893l-54 -52l-83 86l53 53l14 -15l-39 -39l20 -21l33 31l13 -14l-32 -30l21 -23l41 39zM499 1016l10 -17l-39 -24l24 -42l-14 -11
l-63 101l63 40l9 -16l-46 -30l17 -26zM547 1016q0 -7 6 -10q1 -3 9 -7q2 -1 5 -1h5q6 -1 11 1q7 3 10 7q5 5 6 10q1 2 1 10q0 7 -1 11l-27 67l17 8l29 -68q1 -5 1.5 -9t0.5 -9q0 -10 -3 -19q-2 -4 -4.5 -7.5t-7.5 -6.5q-2 -5 -5.5 -7t-8.5 -4t-9.5 -3t-9.5 -1q-8 0 -18 4
q-5 2 -8.5 4t-6.5 6q-7 7 -10 16l-30 66l18 8zM647 1003l-29 116l20 5l22 -97l49 11l4 -20zM716 1018l-12 119l20 2l10 -98l51 5v-20zM849 1023l-19 3l12 118l44 -5q6 0 14 -4q9 -5 11 -10q4 -3 7 -13q3 -7 2 -14q-2 -4 -2.5 -7.5t-2.5 -8.5q-6 -8 -9 -11q-4 -3 -14 -7
q-3 -1 -13 -1l-25 3zM880 1082h7q3 1 7 6q3 0 3 5q2 1 4 7q0 5 -1 7t-2 3.5t-1 2.5l-3 3t-3 2t-3.5 1t-2.5 1l-25 3l-5 -39zM936 1011l-19 5l31 113l43 -11q6 0 12 -6q5 -4 9 -10q4 -5 4 -13q1 -5 0.5 -8t-0.5 -7q-2 -5 -5 -10t-6 -7q-7 -5 -10 -5q-2 -2 -4.5 -2.5
t-4.5 -1.5l22 -57l-15 2q-2 1 -3.5 2.5t-3.5 2.5q-3 1 -5 8l-19 46l-14 4zM962 1105l-9 -31l24 -6q2 0 3 -0.5t3 0.5q2 0 3.5 0.5t3.5 0.5t2 1.5t1 2.5q4 4 4 6q1 3 1 7q-1 2 -1 3.5t-1 3.5q-1 1 -2.5 1.5t-1.5 2.5q-3 3 -6 3zM1022 1048q1 4 3.5 7.5t5.5 6.5q2 3 5 5.5
t6 4.5q3 3 6.5 4t8.5 3q4 3 14 3h15q9 -1 17 -6q7 -3 14 -8q3 -4 5.5 -7t4.5 -5q2 -3 3.5 -6.5t3.5 -7.5q1 -4 2 -7.5t1 -7.5v-7.5t-2 -8.5q-1 -4 -1.5 -7.5t-3.5 -7.5l-3.5 -7l-3.5 -7q-4 -3 -7 -5t-5 -6q-4 -2 -7 -4t-7 -4q-6 0 -16 -2q-12 0 -17 1t-15 5q-11 6 -18 15
q-8 9 -13 21q-2 6 -2 11v12q0 11 6 22zM1039 1041q-2 -3 -2.5 -6t-2.5 -6v-10q0 -2 1 -5t2 -5q1 -6 4 -10q2 -2 3.5 -4t3.5 -3q3 -4 9 -6q7 -4 11 -4h11q7 0 12 1q4 4 8 4q3 2 5 4t4 3q2 3 3 5.5t3 4.5q2 4 2.5 8t1.5 9q0 4 -0.5 7.5t-0.5 7.5q-2 4 -4.5 7.5t-4.5 5.5
q-7 7 -14 10q-2 2 -5 2.5t-6 1.5h-10q-7 0 -10 -2q-4 -2 -6 -2.5t-4 -1.5l-4 -4t-3 -4q-7 -5 -7 -8zM1208 1016l9 -8q1 -2 2 -3.5t3 -3.5q0 -5 -2 -8l-27 -86l82 38q1 1 8 1q4 0 6 -3l10 -8l-117 -54l-14 11zM1264 790l-46 56l90 76l48 -56l-14 -14l-37 44l-22 -19l28 -36
l-16 -11l-27 35l-24 -21l35 -42zM1279 765l-9 16l101 61l23 -37q2 -3 2.5 -6t2.5 -8q2 -7 -2 -12q-2 -9 -5 -13l-4.5 -4.5t-6.5 -5.5q-3 -1 -5 -1.5t-5 -1.5q-3 0 -5 -1t-5 1q-4 0 -10 2q-3 1 -5 2t-4 3l-23 -59l-9 13q-4 2 -4 7q0 7 3 9l20 48l-8 12zM1366 815l-29 -16
l13 -19q3 -5 4 -6q1 0 6 -3h6q2 0 5 3q2 0 6 4q0 2 1 3t1 3q1 1 1 6q-1 1 -1 2.5t-2 3.5zM1421 695q1 1 1 8q0 3 -1 5q-2 2 -2 6q-3 0 -5 4q-2 1 -5 1q-3 1 -5 0t-2.5 -2t-1.5 -2t-2 -1.5t-2 -2.5v-7v-10v-3v-2v-10q0 -2 -0.5 -4.5t-0.5 -4.5q-4 -14 -19 -21q-4 -2 -7.5 -3
t-8.5 1q-6 0 -14 2q-3 3 -6.5 5t-5.5 6q-3 2 -5 5.5t-4 7.5q-2 10 -2 15q0 3 2 13q0 3 3 5l2 4q0 4 2 4q4 2 3 2l4 -2q3 -5 5 -6q0 -2 0.5 -3t0.5 -2q0 -4 -3 -7v-1v-7q0 -5 2 -9q0 -1 1 -2.5t2 -3.5q2 -1 3.5 -2.5t3.5 -2.5q1 -1 2.5 -1t3.5 -2h4.5t4.5 2q2 0 5 3q2 4 2 5
q1 3 1 8v7v4v12q0 8 2 13q1 2 2.5 4.5t3.5 5.5q3 2 5 3.5t6 3.5q8 3 14 2q6 0 12 -4q3 -2 6.5 -3.5t5.5 -5.5q3 -3 6 -11q2 -6 2 -10q0 -6 -1 -10q0 -4 -3 -10q-1 -2 -1 -4t-2 -4l-6 4q-3 1 -4 2.5t-3 3.5l-1.5 4.5t0.5 4.5zM1349 607l-5 18l114 34l5 -19zM1412 607h19
q6 0 14 -4q4 -1 7.5 -3.5t5.5 -4.5q3 -2 6.5 -4.5t5.5 -6.5q4 -8 8 -12q2 -8 4 -18v-15q-2 -10 -4 -15t-4 -8.5t-4 -6.5l-10 -10q-4 -4 -7.5 -5t-6.5 -3q-7 -4 -15 -4q-10 -1 -19 0q-8 0 -15 4q-2 2 -5.5 3t-7.5 4q-3 2 -5.5 5.5t-4.5 5.5q-6 5 -8 15q-2 3 -3.5 6.5
t-1.5 8.5q-1 13 1 24q5 12 10 20q7 9 18 16q5 3 11 5.5t11 2.5zM1415 588q-7 0 -10 -4q-5 -1 -10 -5q-4 -1 -6 -7q-5 -5 -5 -9q-2 -2 -2.5 -5t-1.5 -5v-11q2 -8 4 -11q0 -6 5 -9q1 -3 3 -5t3 -4q3 -1 5 -2.5t5 -2.5q2 -2 5 -2h5q5 -3 11 0q11 0 17 5q5 2 12 11q6 8 6 15
q3 7 1 16q0 6 -2 10q-2 3 -3 5l-2 4l-4 4t-4 3q-5 4 -10 5q-3 4 -11 4q-4 2 -11 0zM1362 371l2 16l96 60l-91 6l1 19l118 -9l-1 -12q0 -5 -1 -8q-3 -3 -4 -5l-81 -51l82 -6l-2 -19z" />
    <glyph glyph-name="A" unicode="A" horiz-adv-x="1269" 
d="M1036 -69q-67 7 -112.5 26t-74.5 48t-44 65.5t-22 77.5t-8.5 85t-2.5 88q-51 13 -108 23t-115.5 18t-115.5 14t-108 9q-28 -39 -67.5 -92t-81.5 -110.5t-81.5 -115.5t-68.5 -106q-9 -1 -36.5 13t-61.5 36t-68.5 47t-57.5 45q34 52 87 124t122.5 158.5t152 184t175 200.5
t192 208.5t202.5 207.5t207 198t205 179q27 0 61 -6t63 -15t47.5 -19t16.5 -17q-40 -134 -79.5 -283t-70.5 -301t-50.5 -302.5t-19.5 -287.5q0 -47 3.5 -96t6 -94.5t2 -85t-9 -68.5t-27.5 -44t-52 -12zM778 489q5 21 15.5 66.5t24 102.5t29 120t30 118t27 96.5t21.5 55.5
q-23 -18 -56.5 -52t-73.5 -77.5t-85.5 -93.5t-91.5 -101t-92 -100t-88 -90z" />
    <glyph glyph-name="B" unicode="B" horiz-adv-x="1424" 
d="M328 1136q-26 45 -47.5 82.5t-44.5 77.5q154 76 326 115t346 39q73 0 139 -16.5t114 -52.5t74.5 -94t22.5 -142q-3 -47 -26.5 -91.5t-58.5 -82.5t-77 -69t-81 -51q79 -8 147 -28t117 -56t75.5 -88.5t22.5 -124.5q-5 -85 -44.5 -157.5t-103.5 -134t-146.5 -112
t-172.5 -90.5t-182 -70.5t-175 -51.5t-151.5 -33.5t-111.5 -16.5q-61 -6 -121 -11.5t-112.5 -6.5t-94 5.5t-65 24.5t-25.5 50t24 82q2 5 17.5 42.5t40.5 98t57.5 140t68 167.5t72 180.5t70 179t61 163t45.5 133.5zM230 64q84 11 177.5 32t185.5 51.5t176 71t149 90t105 108
t44 124.5q2 39 -11 66t-36.5 43t-55 20.5t-66.5 -1.5q-47 -9 -109.5 -25.5t-131 -38t-139 -45t-133.5 -45.5zM463 825q35 9 83.5 23.5t100 34t102.5 43.5t92 53t67.5 63t29.5 72q2 27 -22.5 35t-64.5 3t-89 -18t-94.5 -28t-82.5 -28t-52 -17z" />
    <glyph glyph-name="C" unicode="C" horiz-adv-x="1356" 
d="M662 -29q-27 0 -71 14.5t-97 40.5t-112 60.5t-116.5 74.5t-109.5 83.5t-92 86.5t-63.5 83.5t-23.5 75.5q0 106 40.5 218.5t112 219t170 201t215 165.5t247 112.5t264.5 41.5q58 0 102.5 -19t75 -52.5t46 -79.5t15.5 -100q0 -27 -9.5 -51t-25 -44.5t-35 -38t-39.5 -31.5
q-48 -33 -109 -57l-172 211q-60 -16 -123 -54.5t-122.5 -92.5t-112.5 -119.5t-92.5 -137t-62.5 -144.5t-23 -141q0 -25 18.5 -59.5t48 -71.5t68 -73t79 -65t79 -46.5t69.5 -17.5q18 0 55.5 18.5t88 48.5t110 68t120 78.5t119 78.5t108 68t85.5 48.5t51 18.5q22 0 22 -23
q0 -8 -5 -26q-11 -39 -42 -84t-75.5 -92.5t-100 -95t-116.5 -91.5t-124.5 -82t-123.5 -66t-114 -44t-97 -16z" />
    <glyph glyph-name="D" unicode="D" horiz-adv-x="1207" 
d="M128 1082q-25 7 -41 20t-25.5 30.5t-13.5 38.5t-4 42t4.5 42.5t16 40.5t32 34.5t52.5 26.5q18 6 24 21t10 32t11 31t25 18q45 9 91.5 16t93.5 7q19 0 37.5 -1t37.5 -5l3 -68q77 8 157 15q34 3 71.5 5.5t76.5 5t78 3.5t75 1q84 0 160 -14.5t134 -49t91.5 -93t32.5 -147.5
q-2 -126 -49.5 -244t-127.5 -225.5t-185.5 -202.5t-223.5 -174.5t-242 -143t-240.5 -108t-218.5 -68t-176 -23.5q-24 0 -40.5 9t-28.5 26.5t-21.5 43t-19.5 57.5q29 12 36.5 14.5t10.5 2.5t10 1.5t35 10.5q10 10 25.5 54t34 109t38.5 146t40 165t38.5 166.5t34 150.5
t26 116.5t14.5 64.5zM193 195q111 55 210 109.5t185 114.5t158.5 128.5t132 151t105 182.5t76.5 222q-45 23 -108.5 33.5t-134.5 10.5q-56 0 -112 -5.5t-108 -14.5t-96 -21.5t-74 -25.5q-11 -48 -29 -118t-40 -152.5t-46 -170.5l-46.5 -170.5t-41.5 -153.5t-31 -120z" />
    <glyph glyph-name="E" unicode="E" horiz-adv-x="1220" 
d="M-121 139q18 69 40 151.5t47 172t52.5 183.5t55.5 185.5t55.5 178t53.5 161.5t49.5 136.5t43.5 102.5q9 18 48 35t99 32.5t134.5 29t154 24.5t158.5 20t147 15t120 9.5t77 3.5q57 0 91.5 -23.5t34.5 -79.5v-9q-177 -48 -349.5 -93t-351.5 -74q-22 -3 -34.5 -9.5
t-20 -16.5t-12 -24.5t-9.5 -35.5q-9 -39 -19 -68.5t-19.5 -56.5t-19.5 -56t-20 -68q28 2 72.5 9t92.5 14.5t93.5 13.5t76.5 6q42 0 69 -11t43 -30t22 -45t6 -55v-13q-64 -20 -117 -32.5t-104 -21.5t-103 -16.5t-114 -19.5q-41 -8 -62.5 -11.5t-33 -10.5t-18.5 -21.5
t-19 -45.5q-23 -56 -45.5 -116t-43.5 -118t-38.5 -111.5t-30.5 -96.5q70 7 145.5 23.5t154.5 37t159 42.5t159 40t155 29.5t146 11.5q35 0 49 -16t14 -39q0 -17 -4 -33t-9 -33q-82 -27 -167.5 -60.5t-174 -69t-180.5 -70t-186 -64.5q-27 -9 -84.5 -21t-128 -24t-146 -22.5
t-138.5 -16.5z" />
    <glyph glyph-name="F" unicode="F" horiz-adv-x="1019" 
d="M530 1172q-4 -16 -17.5 -52t-29.5 -82.5t-32 -99t-26 -101.5q51 22 111 41.5t120.5 30.5t118 12t104 -14.5t78 -49t39.5 -91.5q-81 -23 -178.5 -52t-192.5 -63t-179.5 -72t-140.5 -79q-16 -54 -37 -110t-44.5 -112.5t-46.5 -111.5t-44 -108q-14 -35 -39.5 -66.5
t-54.5 -72.5q-17 13 -44.5 26.5t-57 28t-55.5 28.5t-41 27q16 68 45.5 157.5t64.5 192.5t73 217t71.5 231t59 234t36.5 227q4 38 21.5 62t61.5 35q102 25 199.5 47.5t193.5 46t192.5 49t197.5 57.5q25 8 47 6t40.5 -10t34.5 -21.5t30 -29.5q25 -28 43 -62t41 -70
q-197 -57 -385.5 -113t-377.5 -113z" />
    <glyph glyph-name="G" unicode="G" horiz-adv-x="1445" 
d="M567 775q104 32 202 63.5t193.5 56.5t189.5 40.5t191 15.5q40 0 62.5 -9t24.5 -35q2 -21 4 -48t4 -55t3.5 -55t2.5 -49q-28 -4 -51 -6.5t-50 -6.5q14 -21 23 -36.5t14.5 -29t7.5 -26.5t2 -29q0 -49 -34.5 -101t-93 -103.5t-135 -101.5t-160.5 -94.5t-170.5 -82
t-164 -64.5t-141.5 -42.5t-103 -15.5q-33 0 -70 19.5t-75.5 50t-76 69t-70.5 76t-60 71t-44 54.5q-26 31 -37 73t-11 93q0 68 13 155.5t40 174t67.5 162t95.5 120.5q58 47 138.5 96.5t175 96t198 87t209 71t208 48t193.5 17.5q24 0 47 -9t45 -30t44 -56t45 -87
q-89 -35 -177.5 -62.5t-177 -52.5t-175 -50.5t-170.5 -57.5t-165 -73t-157 -96q-18 -13 -38.5 -40t-40.5 -63.5t-39 -80t-33.5 -89t-23 -90t-8.5 -83.5q0 -31 16.5 -65t41 -67.5t54.5 -64t58.5 -54t52 -37.5t35.5 -14q23 2 65 15.5t96 34.5t115 48t121.5 57.5t116 62
t97.5 62t67.5 57t25.5 47.5q0 12 -3 29.5t-9 34t-15 28.5t-20 12q-62 0 -109.5 -8.5t-95.5 -22.5t-105 -32t-138 -38q-14 -3 -26 -3q-26 0 -47.5 19t-38 50t-28.5 70t-18 79z" />
    <glyph glyph-name="H" unicode="H" horiz-adv-x="1440" 
d="M443 1568q17 35 34 52t39 17q13 0 42.5 -4t64 -11.5t67 -19t52.5 -25.5q-14 -39 -35.5 -94t-46.5 -119.5t-52.5 -134.5t-52.5 -139.5t-46.5 -134t-35.5 -116.5q95 11 173.5 23.5t153.5 27t154.5 31.5t176.5 37q27 59 63.5 140.5t74.5 169.5t74.5 172.5t62.5 149.5
q24 60 48 89t54 29q9 0 29 -4.5t44 -12.5t50.5 -19.5t47.5 -26t35 -32t14 -36.5q-36 -121 -82 -249t-99 -260t-109.5 -266t-112 -267t-108 -262.5t-96.5 -251.5q-50 0 -88.5 8t-72.5 22.5t-65 35.5t-66 48l234 627q-68 -7 -149 -18.5t-166.5 -26t-170 -30t-159.5 -30.5
l-283 -651q-19 -3 -44.5 1.5t-53.5 14t-56 22.5t-51 28t-38 30t-17 27q-4 20 10.5 76t42 137t65.5 182t83 211.5t93.5 226t97 224.5t93.5 207t83 175z" />
    <glyph glyph-name="I" unicode="I" horiz-adv-x="513" 
d="M452 1525q29 -21 62.5 -39t67 -35t63.5 -33.5t53 -34.5q6 -6 -8.5 -53t-42.5 -122t-67.5 -172t-83.5 -202t-90.5 -211.5t-89 -201t-78 -171.5t-57.5 -122q-11 -23 -29 -47t-40.5 -43.5t-49 -32.5t-55.5 -13q-47 0 -63 19t-16 57q0 32 11 92t30 138.5t45.5 171.5
t57.5 191.5t65 199.5t69.5 194.5t70 176t66.5 145.5t60 102t49 46z" />
    <glyph glyph-name="J" unicode="J" horiz-adv-x="549" 
d="M279 1256q-24 -14 -48.5 -21t-47.5 -9t-44 -1.5t-40 1.5q-27 1 -47.5 7.5t-35.5 16.5t-24.5 22.5t-15.5 25.5q-14 30 -15 66q154 67 318 121.5t337 78.5q37 5 71.5 9.5t60 1.5t40 -16t13.5 -42q-2 -61 -15 -91t-36 -45t-55.5 -22.5t-73.5 -23.5q-14 -46 -34.5 -122.5
t-49 -174t-64.5 -211.5t-82 -235.5t-102 -246t-123 -243t-146.5 -227t-172 -197.5t-199 -154.5t-228.5 -98.5q-32 -9 -73.5 -9t-77.5 10.5t-59 32t-19 57.5q1 10 22 22.5t48.5 25t55 23.5t42.5 18q68 33 117 68.5t89.5 75.5t77.5 84.5t81 96.5q53 63 101.5 143.5t92 172
t82.5 189.5t73.5 195.5t64.5 190.5t55.5 175t47 149t38.5 111z" />
    <glyph glyph-name="K" unicode="K" horiz-adv-x="1542" 
d="M928 971q30 -75 71 -153t91 -154.5t108 -148.5t123.5 -134t137 -112t147.5 -82q24 -10 38 -20t24 -22t17.5 -28.5t16.5 -39.5q-17 -2 -34.5 -3t-34.5 -1q-129 0 -251.5 58t-236 159t-218 237t-197.5 292l-286 -214q-24 -68 -45.5 -144t-42.5 -150t-44.5 -141.5
t-50.5 -118.5t-60.5 -81.5t-75.5 -30.5q-28 0 -64.5 9t-69.5 24.5t-56 37t-23 46.5q0 42 14.5 113t40 162t59.5 198.5t73.5 222.5t81.5 233.5t83.5 231.5t79.5 217.5t70 190.5q27 74 65.5 105t82.5 31q38 0 70 -22t55.5 -50.5t36.5 -56.5t13 -40q0 -25 -10.5 -66.5
t-27.5 -93t-38 -108.5t-42 -112t-39.5 -105t-30.5 -88q36 24 86.5 63.5t110 88t125 102.5t132 107t131 101t122.5 84.5t106.5 58t82.5 21.5q21 0 46.5 -7.5t48 -21.5t38 -33.5t15.5 -42.5q0 -11 -8.5 -23t-22 -24.5t-29 -25t-30.5 -24.5q-146 -117 -290.5 -231t-284.5 -241z
" />
    <glyph glyph-name="L" unicode="L" horiz-adv-x="1177" 
d="M266 266q-2 -3 42.5 1.5t118.5 15t170 25t198 31t200.5 34t178.5 33.5q24 5 45 3t37.5 -12t26 -28.5t9.5 -46.5q0 -20 -7.5 -28t-28.5 -14q-80 -23 -166.5 -51.5t-175 -57t-177 -56.5t-171 -50.5t-157.5 -37.5t-137 -18q-5 0 -11 1.5t-19.5 8.5t-36 21.5t-61 41t-94.5 67
t-136 98.5q12 58 40 138.5t66.5 173t83.5 192.5t91 197.5t89 187.5t77 163.5t56 124.5t26 71q10 55 36 77t60 21.5t72 -19t73 -44t63 -52.5t42 -45q-7 -65 -29 -142.5t-54 -161t-71 -170.5t-81 -171.5t-84.5 -163.5t-81 -147t-70.5 -122.5t-52 -88.5z" />
    <glyph glyph-name="M" unicode="M" horiz-adv-x="1608" 
d="M483 1085q-21 -71 -47.5 -154t-55 -170.5t-57 -176.5t-55.5 -172t-50 -156t-39 -129q-8 -29 -14 -43.5t-24 -14.5q-32 0 -68 17.5t-66 43t-49.5 53t-19.5 48.5q0 84 17 176.5t44.5 189t62.5 196.5t71.5 200t70.5 198.5t60 192.5q7 25 12.5 45t14 33.5t23.5 21t41 9.5
q35 -24 81.5 -74t97 -111.5t101 -126.5t94 -118.5t77 -88t49.5 -34.5q11 6 41.5 32t74.5 65t99 87t115 98.5t122.5 99.5t121.5 90t111.5 70t93.5 40q24 -18 50.5 -38.5t50.5 -44t42 -51t26 -58.5q-30 -62 -68 -148t-79.5 -187t-86 -211.5t-87.5 -220.5t-83.5 -213.5
t-74.5 -191t-60 -153.5t-41 -100q-35 0 -75.5 8.5t-75.5 25t-58 42t-23 60.5q0 36 15 97.5t39 138t55 162t63 169.5q76 197 172 424l-447 -328q-20 0 -51.5 21.5t-69.5 55.5t-79 76.5t-79.5 85t-71.5 80t-54 62.5z" />
    <glyph glyph-name="N" unicode="N" horiz-adv-x="1344" 
d="M1663 1542q-44 -74 -92.5 -167t-98.5 -198t-100 -218t-96.5 -227t-88 -224.5t-74 -210.5t-55 -185.5t-30.5 -149.5q-2 -11 -10.5 -23t-23 -22t-33 -16.5t-40.5 -6.5q-26 0 -55.5 12t-58.5 44q-29 50 -58 135t-56.5 187t-53.5 213.5t-49.5 215t-45.5 190.5t-40 141
q-13 -42 -34 -104t-47.5 -137t-56.5 -157.5t-60.5 -166t-60 -162.5t-55.5 -146.5t-46.5 -119t-32.5 -79.5q-35 9 -62 26.5t-52 39.5t-49 46t-52 46q51 171 116 346t139 348t154.5 342t161.5 327q20 32 45 32q24 0 44 -30q69 -110 120 -228.5t89.5 -241.5t67 -248.5
t52.5 -249.5q32 97 73.5 198.5t88 203t97.5 199t102 187.5q27 48 61.5 96t78 86.5t97 63t118.5 24.5q4 0 13 -4.5t18 -10.5t17.5 -11t13.5 -5z" />
    <glyph glyph-name="O" unicode="O" horiz-adv-x="1447" 
d="M468 -7q-29 0 -66.5 22t-79.5 59t-86 84t-86 98t-79 100.5t-65 91t-44 71t-16 39.5q0 124 28.5 228t79.5 190.5t121.5 156t153 123t174.5 91.5t187 63t190 36.5t183 11.5q51 0 102.5 -26.5t98 -70t86.5 -99t69.5 -113.5t46.5 -113t17 -98q0 -123 -40.5 -240.5
t-111.5 -222.5t-167.5 -193.5t-209.5 -152.5t-236.5 -100t-249.5 -36zM504 200q85 0 176.5 37.5t179 100.5t166.5 144t138.5 167.5t94.5 172.5t35 158q0 29 -25.5 62.5t-61.5 62t-74 47.5t-62 19q-82 -1 -172 -23.5t-176.5 -65t-165.5 -102t-138.5 -134t-94.5 -162.5
t-35 -186q0 -8 14.5 -33t37 -58.5t49.5 -69.5t51 -66.5t41.5 -50.5t21.5 -20z" />
    <glyph glyph-name="P" unicode="P" horiz-adv-x="1222" 
d="M411 1536q8 24 22 39t32 23.5t40 11.5t46 3q19 0 39.5 -0.5t38.5 -6t32.5 -18t22.5 -36.5q77 18 164.5 25.5t173.5 -1t165 -34.5t139.5 -75t96.5 -123.5t36 -179.5q0 -98 -41 -178t-109.5 -144.5t-157.5 -114.5t-185.5 -88t-192.5 -64.5t-179 -44t-145.5 -27t-91.5 -12.5
q-26 -68 -55.5 -144t-59.5 -153t-58 -151.5t-51 -138.5q-5 -15 -16.5 -21t-26 -8t-31 -1t-32.5 1q-38 0 -67.5 8t-49.5 21t-30.5 29t-10.5 32q0 17 4.5 40t16 59t30.5 90.5t48.5 135.5t70 192.5t94.5 263t123 347t155 443.5zM456 751q40 3 107 16.5t144 38.5t156.5 61
t143.5 83.5t104.5 106.5t40.5 130q0 47 -32 72t-81.5 34.5t-110 7t-117 -9.5t-102 -15t-66.5 -10z" />
    <glyph glyph-name="Q" unicode="Q" horiz-adv-x="1368" 
d="M1170 -636q-56 -6 -110 9t-99.5 47t-79 77t-48.5 99q-15 55 -26.5 96.5t-20.5 76t-16.5 64t-15 60t-15 66t-17.5 80.5q-78 -35 -148.5 -50.5t-132.5 -15.5q-72 0 -138 25.5t-123.5 69t-105 101t-81 121.5t-52 131t-18.5 129q0 125 41.5 241t113 216t167 182t202.5 140.5
t219.5 90.5t219.5 32q106 0 201 -34.5t165.5 -108.5t112 -190.5t41.5 -280.5q0 -67 -21 -140t-57 -146t-84.5 -142t-103.5 -126.5t-113.5 -101t-115.5 -65.5q24 -75 45 -137.5t40.5 -120t38 -112.5t39.5 -113.5t44.5 -124.5t51.5 -145zM819 345q48 27 99.5 59.5t100 70.5
t91.5 82t75.5 94t51.5 105.5t19 117.5q0 82 -18 139.5t-50 94t-76 53t-95 16.5q-72 0 -153.5 -28t-162 -75.5t-155 -110t-131 -131.5t-90.5 -140t-34 -136q0 -47 6.5 -103.5t22.5 -105t43.5 -81t69.5 -32.5q53 0 95.5 4.5t72.5 10.5q35 6 63 15v-1l-4 24t-9.5 60.5t-10 79
t-4.5 78.5q0 37 6.5 61.5t23.5 24.5q28 0 70 -60.5t83 -185.5z" />
    <glyph glyph-name="R" unicode="R" horiz-adv-x="1180" 
d="M1132 -235q-108 0 -187 28.5t-136 77t-96 113t-67.5 136t-49.5 146.5t-43 145t-48 130t-63 102q-32 0 -56 -1t-56 -3q-21 -77 -39.5 -157.5t-38.5 -163t-43.5 -166t-54.5 -165.5q-41 0 -83 6.5t-76.5 24t-56.5 47t-22 74.5q0 26 7.5 70.5t20 101.5t30.5 125t38.5 142.5
t43.5 152t46 154.5q82 270 186 588q98 33 195 59q41 11 86 22t89.5 19.5t87 13.5t79.5 5q107 0 190.5 -22.5t140.5 -68.5t86.5 -115.5t29.5 -163.5q0 -96 -32 -171t-83 -133t-115 -99.5t-127.5 -70t-121 -45.5t-95.5 -24q43 -74 86 -168t91 -191t102.5 -188.5t119.5 -160.5
q12 -12 38.5 -31t54.5 -40t49 -41t21 -34q0 -15 -15 -26.5t-36 -19t-42.5 -11t-34.5 -3.5zM516 1252q-13 -49 -33 -111.5t-39.5 -123t-33.5 -111t-14 -75.5q69 -6 145.5 5.5t150 35.5t140.5 58.5t118 73.5t81 80t30 79q0 37 -25 62t-65.5 40.5t-92.5 22.5t-106 7
q-39 0 -77 -3t-71.5 -9t-61.5 -14t-46 -17z" />
    <glyph glyph-name="S" unicode="S" horiz-adv-x="1304" 
d="M394 167q41 0 94.5 11t109.5 32t110.5 52t99.5 71t75.5 89t38.5 106v8q0 29 -26.5 58.5t-69.5 60.5t-98 63t-113 66.5t-113 72t-98 78t-69.5 84.5t-26.5 93q0 57 32.5 106t85.5 90t119 72t133.5 53t129 33t105.5 11q55 0 101 -11t79 -35t51.5 -61.5t18.5 -90.5v-19.5
t-2 -20.5q-77 -8 -159 -9.5t-156 -7.5t-133.5 -21.5t-90.5 -52.5q64 -36 136.5 -73.5t143 -77.5t135 -84t113.5 -93t78 -104t29 -117v-19.5t-2 -19.5q-13 -102 -52 -186.5t-97 -151.5t-131.5 -116.5t-154.5 -82.5t-166.5 -49t-168.5 -16q-128 0 -232 26.5t-178 64t-114 79
t-40 71.5q0 12 4.5 26.5t17.5 27t37 21t62 8.5q36 0 70 -18t74 -39.5t90 -39.5t118 -18z" />
    <glyph glyph-name="T" unicode="T" horiz-adv-x="671" 
d="M278 44q-17 -57 -48.5 -82.5t-66.5 -25.5q-26 0 -52 12.5t-46 34.5t-32.5 52.5t-12.5 66.5v7q3 82 23.5 181t51.5 206t68 219t73 220.5t67 209.5t50 187q-60 -8 -120 -15q-51 -6 -109 -11.5t-105 -7.5q-55 0 -93 8t-61 22t-33.5 32t-10.5 39q0 18 15 30.5t48 15.5
q165 16 329 33t328 31.5t328.5 24t330.5 11.5l26 -130l-518 -59q-47 -159 -103.5 -326t-114.5 -334t-113.5 -331.5t-98.5 -320.5z" />
    <glyph glyph-name="U" unicode="U" horiz-adv-x="1252" 
d="M573 245q80 17 151 75.5t134 143t117.5 187t102 207t87.5 203t73 175t60.5 123.5t48.5 48q11 1 26.5 -5t27.5 -16q-20 -137 -55 -280.5t-87 -283.5t-122 -270.5t-160 -241.5t-200.5 -197t-244.5 -136q-128 60 -222 130.5t-156.5 148.5t-93 162.5t-30.5 171.5
q0 80 17 161.5t46.5 162.5t68 160t81 154t86.5 145t84 132q36 57 66.5 84t64.5 27q16 0 41.5 -10.5t53.5 -26t54 -34.5t43 -36q-12 -50 -42 -116.5t-68.5 -144t-80.5 -163t-77 -173.5t-57.5 -175.5t-22.5 -169.5q0 -41 12.5 -87.5t36.5 -91t58.5 -82t77.5 -61.5z" />
    <glyph glyph-name="V" unicode="V" horiz-adv-x="816" 
d="M1446 1432q-71 -61 -154 -140.5t-181.5 -182.5t-213.5 -232.5t-250 -290.5q-23 -28 -59.5 -76.5t-77.5 -107t-83 -122.5t-75.5 -122t-55 -104.5t-21.5 -71.5q0 -20 -6.5 -31t-15.5 -17t-20 -7.5t-21 -1.5q-22 0 -50 12t-57 29t-56 36.5t-46 33.5q-1 34 -1 67.5v67.5
q0 149 2.5 292t5 285t5 284.5t2.5 291.5q0 46 16.5 74t47.5 28q25 0 54 -24.5t59 -59.5t58 -73.5t51 -66.5q6 -8 8 -19t2 -20q-12 -78 -20 -151.5t-12 -147t-4.5 -149t1.5 -157.5q40 57 92 119t108 122t112 114.5t106 95.5q66 55 119 98.5t100 80t91.5 69t94 66t108 70
t133.5 81.5q2 -2 17.5 -8t34.5 -13t34.5 -13t17.5 -8z" />
    <glyph glyph-name="W" unicode="W" horiz-adv-x="1415" 
d="M1969 1369q-47 -41 -93 -81t-95 -85t-101.5 -97.5t-113.5 -117.5t-131.5 -146t-154.5 -183q-23 -28 -60.5 -78.5t-81 -113t-88 -129.5t-80 -128.5t-58.5 -110t-23 -73.5q0 -17 -6.5 -26t-16.5 -14t-21.5 -6t-21.5 -1q-24 0 -47 1.5t-42 3t-30.5 3.5l-11.5 2l-122 104
q-18 49 -36.5 114.5t-35 133t-30 130t-19.5 105.5q-17 -31 -38 -75.5t-42.5 -95.5t-42 -105t-36.5 -103t-25.5 -88.5t-9.5 -62.5q0 -27 -6 -43t-16.5 -24.5t-25.5 -11t-32 -2.5q-11 0 -20.5 2t-14.5 7l-136 131q-7 120 -9 242.5t-2 246.5q0 138 1.5 271.5t1.5 258.5
q0 15 2 30.5t8 28t17 20.5t29 8q30 0 59.5 -26t56 -61t47.5 -71t34 -56q10 -17 10 -34v-280.5t-3 -224.5q26 57 54.5 120.5t60 124.5t66 115t72.5 93l118 -83q10 -32 22 -76.5t26.5 -91.5t31 -92.5t35.5 -79.5q86 147 208 282t265 252.5t299 216t311 172.5q13 0 36.5 -6
t46.5 -13.5t41 -14t20 -8.5z" />
    <glyph glyph-name="X" unicode="X" horiz-adv-x="1139" 
d="M1359 1172q-102 -87 -201 -178t-185.5 -175t-156.5 -155.5t-116 -119.5q54 -90 102.5 -162.5t93 -132.5t86 -110.5t80.5 -97t76.5 -91.5t75.5 -94q22 -29 26 -45.5t-2 -29t-17.5 -24t-18.5 -28.5q-54 38 -114.5 91.5t-122 115t-121.5 126.5t-113 126.5t-96.5 115.5
t-72.5 93q-19 -16 -53.5 -52t-79 -85t-95.5 -107t-101.5 -119.5t-98 -121.5t-85 -112t-62 -93t-29.5 -64q-14 14 -43.5 32t-59.5 40t-53.5 49t-26.5 59q27 90 85 188t139.5 204.5t182 222.5t211.5 243q-32 42 -56 75t-46 63.5t-43 63.5t-46 76.5t-55.5 100.5t-71.5 136
q-26 50 -22.5 81t24.5 46.5t54 16t66.5 -9.5t61 -30t37.5 -46q16 -41 37 -88t49 -101t63.5 -115.5t81.5 -131.5q157 152 328.5 292.5t342.5 260.5z" />
    <glyph glyph-name="Y" unicode="Y" horiz-adv-x="891" 
d="M-318 -556q69 116 147 259t158 298t159 314.5t152 308.5q-13 -1 -25 -1.5t-24 -0.5q-76 0 -127 20t-81.5 55t-43.5 82.5t-13 102.5q0 64 14 134t34.5 137.5t43 128t39.5 105.5q10 28 18.5 50t18 37t21 22.5t29.5 7.5q22 0 63 -15q70 -27 113 -75.5t43 -121.5
q0 -32 -9 -68t-29 -77q-7 -15 -24 -50.5t-35 -80t-31.5 -91t-13.5 -83.5q0 -34 14.5 -55t49.5 -21q1 0 6.5 -0.5t11.5 -1.5t11 -1.5t7 -0.5q81 112 148 225t133 225.5t135.5 224t154.5 221.5q39 -30 65.5 -53t44.5 -47t28.5 -54t16.5 -73q6 -29 -9.5 -83.5t-44.5 -123.5
t-67.5 -147t-78 -154t-76.5 -145.5t-64 -120.5q-75 -144 -153 -291.5t-160.5 -284.5t-170.5 -256t-183.5 -205.5t-199 -134t-216.5 -41.5z" />
    <glyph glyph-name="Z" unicode="Z" horiz-adv-x="1605" 
d="M1737 -74q-6 -24 -18 -43t-39 -19q-13 0 -26 4q-68 20 -142.5 50t-153 62.5t-159 64.5t-159 57.5t-154.5 41.5t-145 16q-62 0 -131 -12.5t-141 -34t-144.5 -50.5t-140 -63t-128.5 -71t-110 -74q-17 -13 -29.5 -18.5t-24.5 -5.5q-6 0 -30 12t-50 32.5t-47 46.5t-21 54
q0 14 6 29t20 29q150 150 313.5 286t331.5 267.5t337 261.5t329 267q-82 -9 -158 -30.5t-148.5 -42.5t-142 -36.5t-138.5 -13.5q-30 1 -68 31t-74.5 73.5t-67 92t-43.5 86.5q124 8 242 17q50 4 104 8t106 8.5t100.5 8.5t87.5 9q29 3 74 10t99 15t113.5 18t116.5 19
q135 22 287 48q3 -22 8 -50t8.5 -58.5t5 -62t-3 -60t-16 -52t-32.5 -38.5q-74 -51 -146.5 -100.5t-150.5 -90.5q-85 -47 -181 -111.5t-188.5 -132.5t-173 -134t-135.5 -116q95 5 174 11.5t155 6.5q72 0 150 -25.5t156.5 -67.5t155.5 -96.5t146.5 -112.5t129 -115.5
t104.5 -105.5z" />
    <glyph glyph-name="bracketleft" unicode="[" horiz-adv-x="1201" 
d="M159 -123q59 125 109.5 232.5t94.5 202.5t83.5 181.5t77.5 171t76.5 169.5t80.5 178t88.5 196.5t100.5 224.5q128 8 248 4.5t241 -15.5l-83 -194q-32 1 -59.5 2t-53 2t-51 1.5t-52.5 1.5q-20 -40 -52 -108t-70.5 -154.5t-82 -185.5t-87 -200.5t-85.5 -200t-77 -184.5
t-62 -153.5t-41 -106.5q36 -1 77 -0.5t83 1t83.5 0t79.5 -3.5l-88 -229q-117 3 -212.5 4.5t-186.5 4.5z" />
    <glyph glyph-name="backslash" unicode="\" horiz-adv-x="1169" 
d="M188 1647q10 0 38.5 -39.5t69.5 -108.5t92 -161.5t107 -198t114 -218.5t112 -223t102 -212t84 -185t58 -141.5t24 -82.5q2 -19 -2 -32.5t-7 -22.5q-2 -5 -20.5 -11t-41 -10.5t-43.5 -6t-27 2.5q-14 9 -45.5 55.5t-75 120.5t-96 170t-108.5 204t-113.5 222t-111 223.5
t-100.5 210t-81.5 180.5t-54 135.5t-19.5 74.5q0 20 4 29q2 6 20.5 10.5t41.5 8t45.5 5t33.5 1.5z" />
    <glyph glyph-name="bracketright" unicode="]" horiz-adv-x="968" 
d="M1024 1280q-79 -167 -141 -303t-115.5 -255.5t-101.5 -230.5t-99 -228.5t-109 -249t-130 -292.5q-128 -8 -248 -4.5t-241 15.5l94 217q32 -2 59.5 -2.5t53 -1.5t51 -1.5t52.5 -1.5q20 40 51.5 107t69.5 152t80.5 182t85 196t83 196t75 181t61 150.5t40.5 105.5
q-36 1 -77 0.5t-83 -1t-83.5 0t-79.5 3.5l83 190q39 -1 90.5 -2.5t108 -3.5t115.5 -4.5t113 -4.5t99.5 -3.5t75.5 -2.5z" />
    <glyph glyph-name="asciicircum" unicode="^" horiz-adv-x="1062" 
d="M780 936q15 -59 34 -125t40.5 -132.5t46 -129.5t51.5 -116q2 -3 2 -8q0 -10 -12.5 -22.5t-32 -25t-43.5 -24t-46 -20.5t-39.5 -14.5t-25.5 -5.5q-35 0 -60 15.5t-43 41t-30 58.5t-20.5 67.5t-15 69t-12.5 62.5q-22 -24 -50 -57t-60.5 -68.5t-68 -70t-72 -61.5t-74 -44
t-72.5 -17q-23 0 -24 18q-1 16 16 47.5t46 73t66.5 89.5t79 97.5t83.5 97t79 87t66 69t44 42.5z" />
    <glyph glyph-name="underscore" unicode="_" horiz-adv-x="869" 
d="M730 -197q-52 -5 -119.5 -8.5t-142 -4.5t-152 1t-149.5 7t-135 14t-108 23q-6 10 -2 23.5t10.5 27.5t11 27.5t-2.5 24.5q57 8 123 12t137 6t145 2.5t146 2.5t140.5 5.5t128.5 11.5z" />
    <glyph glyph-name="grave" unicode="`" horiz-adv-x="534" 
d="M416 1098q7 -6 17.5 -16.5t17.5 -24t8 -28t-9 -27.5q-80 29 -152 69t-144 79q-26 14 -45.5 41t-27.5 57.5t-3 59.5t29 49q26 21 50 16.5t47.5 -25t47.5 -53.5t50 -69t54 -70.5t60 -57.5z" />
    <glyph glyph-name="a" unicode="a" horiz-adv-x="1295" 
d="M27 108q-47 91 -62.5 171.5t-5.5 151t42 131.5t80 113q73 78 147.5 123.5t151.5 53t159 -27.5t170 -117q11 12 27.5 21t35 10.5t38.5 -6.5t38 -29q32 -38 49 -61.5t18.5 -46t-13 -50t-44.5 -73.5q-55 -82 -90.5 -156.5t-52.5 -156.5q-8 -37 20.5 -34t79.5 33t117 80.5
t134 108t130.5 115.5t106.5 104q30 -31 43 -61.5t14 -58.5t-6.5 -51t-17.5 -38q-80 -120 -187.5 -214t-234.5 -160q-53 -28 -108.5 -42.5t-108.5 -14.5t-101.5 14t-88.5 43q-24 18 -33.5 37t-9.5 39t6 40t13 40q-71 -47 -147.5 -65t-142 -16.5t-111 16.5t-55.5 34zM499 669
q-18 -4 -43.5 -23.5t-53.5 -49t-55.5 -65.5t-50.5 -73.5t-39.5 -73.5t-21 -64.5t5 -47t37.5 -20.5q62 -5 117.5 26t102.5 82t85.5 114t65.5 121q5 11 -8 26.5t-35.5 28t-51.5 19t-55 0.5z" />
    <glyph glyph-name="b" unicode="b" horiz-adv-x="941" 
d="M1057 410q-82 -64 -175 -93t-196 -37q0 -8 -15.5 -31.5t-40.5 -55t-56 -66.5t-63 -65q-60 -56 -127.5 -102.5t-136.5 -88.5q-16 4 -47.5 14.5t-69.5 24.5t-78 31.5t-72.5 35.5t-53.5 36.5t-21 34.5q0 61 8.5 130t23.5 142.5t35.5 148.5t45.5 149q57 169 139.5 333.5
t175 318t185.5 293t170 258.5q10 0 26.5 -15.5t34.5 -37.5t35.5 -45.5t29.5 -38.5q7 -9 10.5 -27.5t3.5 -24.5q-60 -122 -127 -241t-134 -236.5t-131 -233.5t-119 -231q13 16 31.5 25.5t40.5 15t44.5 7t42.5 1.5q50 0 98 -21t86 -52.5t61 -68t24 -68.5q75 -8 145 13.5
t135 57.5q12 7 21 11.5t17.5 3.5t15.5 -10t15 -28q7 -19 8 -43t-4.5 -48t-15.5 -44t-25 -32zM498 327q-24 7 -54.5 23.5t-64.5 38t-70 47.5t-71 52q-26 -41 -40.5 -80t-21.5 -78t-8.5 -77.5t-1.5 -77.5q0 -11 5 -20.5t17 -9.5q41 0 86 18.5t87 46t77.5 59.5t59.5 58z" />
    <glyph glyph-name="c" unicode="c" horiz-adv-x="928" 
d="M1006 404q-36 -39 -81 -76t-89.5 -69t-84 -57t-63.5 -40q-19 -12 -47.5 -32t-64 -42t-75 -44.5t-78.5 -38.5t-76.5 -23t-68.5 0q-39 9 -85.5 31.5t-84.5 48.5q-42 29 -72.5 53t-49.5 49.5t-28 55.5t-9 71q0 86 17 160.5t50 142t81.5 128.5t111.5 120q30 28 70 60
t84.5 59.5t90.5 45.5t88 18q49 0 88.5 -18.5t67 -50t42 -72.5t14.5 -86q0 -44 -12 -77.5t-32.5 -62t-47 -54.5t-55.5 -56q-14 2 -20.5 11.5t-13.5 19.5l-101 143q-41 -21 -78.5 -57.5t-66.5 -80t-46.5 -91.5t-17.5 -92q0 -23 2.5 -48t8.5 -49t16 -45.5t25 -37.5
q54 16 111 37.5t128 58.5t162.5 95t213.5 148q14 5 29 6t28.5 -1t23.5 -6t14 -10q10 -14 14 -32t2 -37.5t-10.5 -39t-24.5 -36.5z" />
    <glyph glyph-name="d" unicode="d" horiz-adv-x="1093" 
d="M1152 558q17 -20 21.5 -44t1.5 -48t-11.5 -44t-15.5 -32q-46 -72 -99 -130t-106 -103t-103.5 -76.5t-91.5 -51t-70 -27t-38 -4.5q-29 11 -53 22t-46 24.5t-41.5 31t-38.5 42.5q-5 -2 -4 -4.5t3.5 -3.5t3.5 0.5t-3 7.5q-30 -16 -58.5 -38.5t-58 -43t-61 -33.5t-67.5 -10
q-14 1 -39 11.5t-54 26t-60 34.5t-57.5 38.5t-46 37t-26.5 29.5q-27 48 -29 101.5t12.5 108t42.5 108.5t62 104t70.5 94t68.5 78q55 59 117 96t124.5 46t123.5 -13t115 -80q18 37 38 88.5t39.5 107t35.5 108.5t26 93q3 14 9.5 43t15.5 65t20 74.5t24 71t27.5 54t29.5 24.5
q23 -14 51 -39t55 -54t49.5 -58.5t35.5 -52.5q-20 -66 -50 -146t-66 -170t-76 -186t-78.5 -194t-74 -195t-63.5 -187q20 -9 52 4t70.5 40t81 64.5t83.5 76.5t77.5 76t63.5 64zM564 708q-55 -25 -109 -70t-101.5 -101t-85.5 -118.5t-60 -121.5q-7 -18 -10 -38t10 -38
q38 15 83.5 44.5t90 68t84.5 84.5t66.5 95t36.5 99t-5 96z" />
    <glyph glyph-name="e" unicode="e" horiz-adv-x="849" 
d="M359 644q31 3 60 20t54.5 42t46 55t34.5 58q-5 2 -9 5t-8 3q-33 -4 -62 -24t-52 -47t-39.5 -57t-24.5 -55zM963 411q-22 -31 -61 -74t-88.5 -90t-105.5 -93t-111.5 -82.5t-106.5 -59t-90 -22.5q-9 0 -28.5 6t-45 15.5t-54 21.5t-55.5 24t-49 22.5t-35 18.5q-38 22 -70 50
t-54.5 62.5t-35 75.5t-12.5 91q0 64 21.5 133.5t58.5 137t88 128t110 107t123.5 73.5t129.5 27q103 0 156.5 -48t53.5 -142q0 -56 -19.5 -102t-52.5 -84.5t-76.5 -69t-91 -56t-96.5 -46t-92 -38.5q-16 -27 -24 -49t-8 -59q0 -39 18 -61.5t75 -22.5t120 30.5t123.5 75.5
t115.5 95.5t96 91.5q11 11 29.5 31t41.5 39.5t49 34t52 14.5q9 0 19.5 1t19.5 -2t14.5 -11.5t5.5 -27.5q0 -48 -16.5 -89.5t-41.5 -76.5z" />
    <glyph glyph-name="f" unicode="f" horiz-adv-x="810" 
d="M887 558q11 -14 16 -31t5 -33q0 -33 -15.5 -63t-29.5 -47q-62 -70 -126.5 -111.5t-129.5 -63.5t-128.5 -29t-123.5 -7h-15q-43 -122 -83 -234t-80 -218t-83 -206.5t-91.5 -200.5t-105 -201t-124.5 -206q-6 0 -24.5 7.5t-44 19.5t-54 27t-53.5 28.5t-43.5 24.5t-23.5 16
q26 66 65.5 150t86.5 182.5t98.5 211t102 237t97 258.5t82.5 276q0 1 -13 19t-30 40t-32.5 40.5t-20.5 21.5q0 6 -0.5 11.5t-0.5 10.5q0 14 3 25t13 25q26 36 63 65t72 53t61.5 43.5t32.5 36.5q46 109 106.5 237t135 254.5t162.5 241t187 197.5l103 7q-53 -111 -115 -216.5
t-124 -213.5t-118.5 -223.5t-97.5 -245.5q-15 -47 -30 -92t-28 -87.5t-21.5 -82t-9.5 -74.5q37 -6 86 -6q42 0 90 7t100.5 25t108 50t112.5 82z" />
    <glyph glyph-name="g" unicode="g" horiz-adv-x="1095" 
d="M1153 540q13 -30 11 -63t-12.5 -63t-25 -54.5t-25.5 -36.5q-40 -44 -86 -83t-92.5 -73t-91.5 -62.5t-83 -51t-66 -38t-41 -23.5q-32 -51 -69 -127.5t-85.5 -166t-113 -185.5t-152.5 -186q-49 -50 -121 -82t-155 -32q-67 0 -132 15t-116 43t-82 69t-31 94q0 61 30 117.5
t80.5 108t116 98t137 88t143.5 77.5t135.5 66.5t113 55.5t75.5 44q-40 -16 -75.5 -23t-67.5 -7q-56 0 -112 20t-101.5 55t-74 82.5t-28.5 101.5q0 43 7.5 97.5t25 111.5t45.5 111.5t68.5 98.5t94.5 72.5t123 33.5q27 2 42 -2t25 -11t17.5 -14t18.5 -11q13 24 23.5 33.5
t23 12t29 0.5t42.5 -2q55 0 103.5 -34.5t84.5 -85t56.5 -107.5t20.5 -102q0 -37 -6 -70.5t-15.5 -62.5t-20 -52t-19.5 -39l381 288zM355 571q-51 -56 -76.5 -134t-25.5 -159q0 -29 8 -49.5t31 -20.5q25 0 56.5 12.5t64 34t63.5 49.5t55.5 58.5t39.5 61.5t15 59
q0 45 -13 77.5t-33 52.5t-44 29.5t-46 9.5q-8 0 -23 -11.5t-30 -26t-27 -27.5t-15 -16zM-104 -592q0 -16 16.5 -23.5t40.5 -7.5q27 0 57.5 9t53.5 28q51 42 92.5 91.5t78 103.5t71 113t71.5 121q-21 -16 -65 -46t-97.5 -69t-110 -83t-103 -87t-76 -82t-29.5 -68z" />
    <glyph glyph-name="h" unicode="h" horiz-adv-x="1122" 
d="M1237 477q-17 -26 -35.5 -53t-38.5 -53q-60 -82 -125.5 -158t-130 -134.5t-125 -94t-109.5 -35.5q-39 0 -81 4.5t-76.5 19.5t-56.5 43.5t-22 76.5q0 5 0.5 11t1.5 12q9 60 33.5 116t55.5 111t62.5 109t54.5 109q-31 -1 -67.5 -17.5t-74 -44t-75.5 -61.5t-71.5 -68.5
t-61.5 -67t-46 -56.5q-33 -43 -61 -90t-58.5 -86t-68.5 -64.5t-91 -25.5q-10 0 -14.5 0.5t-8.5 1.5t-10 3.5t-18 6.5q-20 7 -27.5 19.5t-5.5 28.5q3 21 10.5 60.5t17.5 88.5t21.5 103.5t23.5 106t23.5 96.5t21.5 74q40 117 88 233.5t87 222.5q17 45 47 112.5t70.5 142
t89.5 149.5t104.5 134.5t115 97t120.5 37.5q28 0 61 -17.5t61.5 -44t48 -57t20.5 -56.5q0 -84 -30 -177.5t-75.5 -184t-98.5 -172.5t-99 -143q-11 -14 -34.5 -38.5t-53 -53.5t-61.5 -60.5t-59.5 -60.5t-46.5 -53.5t-23 -38.5l5 -2.5t6 0.5q18 7 48.5 31.5t70 56.5t85 67.5
t93 65t95.5 49t91 19.5q19 0 32.5 -15.5t22 -39.5t12.5 -53t4 -55q0 -44 -13.5 -88.5t-34.5 -89t-47.5 -88.5t-52 -88t-47.5 -87t-35 -85q39 25 95.5 73.5t122 111t134.5 133.5t134 140l28 -41zM721 1368q-18 -1 -18 -2q-26 -31 -59.5 -77t-70 -99.5t-71.5 -111
t-62.5 -112.5t-44.5 -104t-17 -84v-6q55 67 97.5 123.5t75.5 105t58 93t45 88t36 89t31 97.5z" />
    <glyph glyph-name="i" unicode="i" horiz-adv-x="646" 
d="M312 1268q20 1 40 3q17 1 37 2t37 1q22 0 46 -16.5t44 -45.5t33 -68t13 -84q0 -33 -18 -55.5t-63 -22.5q-43 0 -81 12.5t-66.5 35t-45 53.5t-16.5 67q0 31 10.5 60t29.5 58zM679 593q14 -20 29 -36t27 -27t19.5 -18t7.5 -9q-15 -33 -47.5 -84t-75 -109t-91 -116.5
t-95.5 -106t-89.5 -77t-72.5 -29.5q-19 0 -48.5 8.5t-63.5 22t-68.5 30t-64 33t-50.5 31.5t-28 24q-18 26 -26 60t-8 74q0 52 15 121.5t40.5 142.5t58.5 144t68 127t70 90.5t64 34.5q16 0 34 -12q27 -20 46.5 -42.5t33.5 -47.5t24 -53t19 -59q-17 -19 -36.5 -50.5
t-39.5 -70.5t-38.5 -82.5t-33 -87t-23 -85t-8.5 -74.5q0 -27 6 -46q50 25 110 71.5t120 100.5t116 109.5t99 97.5z" />
    <glyph glyph-name="j" unicode="j" horiz-adv-x="604" 
d="M157 1246q10 34 31.5 61t52.5 43.5t70 20.5t83 -7q27 -7 48.5 -21t35 -34.5t18 -47t-3.5 -56.5q-12 -39 -37.5 -68t-58.5 -46.5t-71.5 -22t-76.5 5.5q-37 9 -58.5 27.5t-31 42t-9 50t7.5 52.5zM719 517q-72 -129 -146 -203.5t-143.5 -111.5t-131 -45t-107.5 -5
q-61 -192 -158 -347t-232.5 -256.5t-309.5 -142.5t-388 -5q-32 5 -54 25t-29 57q12 30 36 47t53.5 27t61 15t58.5 10q86 16 166 35t152 52.5t135 87t116.5 138.5t96 207.5t73.5 294.5q6 32 18 92.5t28.5 132t35.5 145.5t39.5 133t40 94.5t37.5 30.5q26 -8 54 -22t54.5 -32
t48 -39.5t33.5 -45.5q15 -30 20 -61t3.5 -61.5t-7 -59t-12.5 -52.5q-12 -37 -22.5 -69t-21.5 -63t-23 -63.5t-27 -71.5q63 -2 118 20.5t102 56t86 70.5t72 66z" />
    <glyph glyph-name="k" unicode="k" horiz-adv-x="1116" 
d="M625 1753q-47 -136 -91.5 -273.5t-83 -267.5t-68 -248t-46.5 -215q30 37 59.5 68.5t64 55t77 37t98.5 13.5q32 0 60.5 -10t50 -31.5t34 -54.5t12.5 -79q0 -69 -28 -123t-73 -93.5t-100 -65.5t-109 -38q37 -50 67 -91t57.5 -69.5t55.5 -44t61 -15.5q42 0 86 24.5t87 63.5
t83.5 86.5t75 92.5t61.5 83t44 58l75 -99q-28 -49 -62.5 -108.5t-75 -121t-87 -119.5t-97.5 -103t-107.5 -72.5t-116.5 -27.5q-70 0 -124.5 13.5t-97 36t-75 53.5t-59 66t-49.5 72.5t-45 73.5q-25 -23 -41 -57t-29 -72t-25.5 -76t-30.5 -68.5t-44 -49.5t-65 -19q-20 0 -36 2
t-27 10.5t-16.5 25t-5.5 45.5q0 47 11.5 144t36.5 229t64 291.5t93 331.5t125 349.5t159 344.5zM415 539q37 10 67 24q25 12 46 29t21 40q0 13 -14 20t-27 7q-17 0 -34.5 -9t-33.5 -21t-28.5 -25t-18.5 -20z" />
    <glyph glyph-name="l" unicode="l" horiz-adv-x="769" 
d="M361 -26q-26 0 -65.5 15t-84.5 39t-90 53t-81 58t-59 54t-23 40q0 110 19.5 218t53 213.5t78 208.5t94.5 202.5t102.5 195.5t101.5 187q27 50 69.5 112t96 117t115 92t125.5 37q26 0 54 -19t53.5 -47.5t48.5 -63t40 -66t27 -54.5t10 -30q-2 -105 -40.5 -217.5
t-101.5 -224t-145 -217.5t-169.5 -198.5t-174.5 -167t-162 -122.5q0 -8 4 -34t13 -54t24 -50.5t36 -22.5q28 0 63 17t74.5 45t81.5 65t83.5 76t82.5 78t77 72q11 11 23 14t21 3q20 0 31 -16t11 -38q0 -26 -15.5 -64t-42 -83t-62.5 -94t-77 -96t-84.5 -89t-85.5 -74
t-80.5 -51t-69.5 -19zM344 691q37 23 77 58.5t78.5 78t75.5 90t69.5 95.5t58.5 93.5t43 83.5q22 49 48 102t49 105.5t39.5 104t19.5 97.5q-10 -4 -20 -6t-15 -9q-69 -83 -133.5 -176t-128.5 -201t-130.5 -233.5t-139.5 -271.5q1 -11 9 -11z" />
    <glyph glyph-name="m" unicode="m" horiz-adv-x="1724" 
d="M1860 517q-21 -42 -52 -96t-70 -111.5t-85.5 -113t-98 -99t-107 -70t-112.5 -26.5q-41 0 -79 14.5t-66.5 40t-45.5 60t-17 75.5q0 49 16 102.5t35 106.5t35 102t16 90q0 8 -8 13.5t-14 5.5q-17 0 -36.5 -19t-40.5 -48.5t-41.5 -65t-38 -69t-31 -60.5t-20.5 -39
q-49 -86 -85.5 -174.5t-77.5 -171.5q-25 9 -47 17t-42.5 17.5t-40.5 22t-40 29.5q4 57 28 120.5t51.5 130t49.5 135t22 135.5q0 16 -8.5 19.5t-19.5 3.5q-28 0 -59.5 -26t-64.5 -69t-66.5 -99t-66 -115.5t-63.5 -119t-57.5 -110t-48.5 -87t-38 -50.5q-28 8 -49.5 16.5
t-39 19t-32.5 24t-29 31.5q0 55 16 108t40 105t52.5 103.5t52.5 104t40 106.5t16 111q0 23 -3 49q-50 -21 -91 -51t-75 -62t-61.5 -64t-50 -57t-42 -40.5t-37.5 -15.5q-22 0 -44 10t-49 44q22 32 51 82t64 106t76 112.5t88 102t100 74t111 28.5q34 0 68.5 -11t64 -33
t50.5 -54.5t29 -75.5q10 20 26 40t38 36t49.5 26t59.5 10q30 0 63 -9.5t61 -29t47 -49.5t21 -71q28 25 54 45t52.5 35t56.5 24t68 11q36 -13 77 -43t75.5 -70.5t57 -88.5t22.5 -98q0 -40 -19 -85t-42 -88.5t-42 -82.5t-19 -66q0 -9 3.5 -17.5t12.5 -8.5q19 0 51.5 23.5
t71 60t79 80t76 84.5t62.5 74t39 47z" />
    <glyph glyph-name="n" unicode="n" horiz-adv-x="1193" 
d="M-34 507q16 27 42 62.5t57.5 67.5t66 54t69.5 22q23 0 43 -13t35.5 -32.5t26 -42.5t13.5 -44q20 33 53 68.5t70 64.5t72.5 47.5t60.5 18.5q45 0 84.5 -25t69.5 -62.5t47.5 -82t17.5 -82.5q0 -37 -7.5 -74t-16.5 -75.5t-16.5 -78t-7.5 -81.5q0 -31 8 -44.5t22 -13.5
q20 0 53 22.5t74 58.5t86 81.5t87.5 91t80.5 87.5t64 72l80 -117q-24 -35 -59 -86t-80 -108t-99.5 -114t-117.5 -102t-133 -73.5t-147 -28.5q-52 0 -82.5 30t-46.5 77t-21 104t-5 111q0 36 1 68t1 57q0 26 -2 41.5t-9 15.5q-31 -8 -58 -46.5t-51.5 -90.5t-48.5 -111
t-48.5 -109t-50.5 -82.5t-56 -32.5q-24 0 -50 5.5t-49 14t-40.5 19.5t-24.5 23q5 14 16 40t24 59t27 69.5t25.5 71t19 64t7.5 47.5q0 42 -8.5 55t-11.5 13q-5 0 -17.5 -9t-26.5 -20t-25.5 -21t-13.5 -12z" />
    <glyph glyph-name="o" unicode="o" horiz-adv-x="868" 
d="M1018 497q-15 -38 -42.5 -70t-62 -55t-72.5 -35.5t-74 -12.5q-47 0 -82 22q-29 -69 -66.5 -123.5t-84 -99t-101 -81.5t-115.5 -71q-9 -5 -23 -5q-23 0 -54 14t-65.5 36t-69.5 49t-66 53t-56 48t-39 34q-3 15 -6 33.5t-5 37t-3 34.5t-1 25q0 51 17 105t43.5 105.5t59 99
t63.5 84.5q25 33 67.5 68.5t93 64t104 47t100.5 18.5q51 0 98.5 -30t84.5 -74.5t59.5 -95.5t22.5 -94q0 -9 -1 -20.5t-2.5 -23t-4 -22.5t-5.5 -18q4 -3 6.5 -4.5t6.5 -3t11 -2t21 -0.5q15 0 31 1.5t33.5 8.5t35.5 21t38 38zM473 642q-14 9 -28 9q-12 0 -23.5 -6t-20.5 -15
q-37 -39 -69.5 -83t-56.5 -89.5t-38 -90.5t-14 -85q0 -11 8 -18t19 -7q16 0 40 14t49 34.5t48.5 43.5t38.5 41q26 31 46 62.5t38 66.5q-16 13 -23.5 27.5t-10.5 30t-2.5 32t-0.5 33.5z" />
    <glyph glyph-name="p" unicode="p" horiz-adv-x="1043" 
d="M-462 -572q7 17 21.5 47.5t39.5 85t61 137t85 204t113.5 286t145.5 381.5q7 19 18 47.5t24 62t27 69.5t26.5 69.5t23 62.5t17.5 48q11 32 35 44t53 12t59 -7t56 -12q63 18 117 18q80 0 140.5 -34.5t101 -90.5t61 -127.5t20.5 -145.5q0 -51 -11 -105t-35.5 -106.5
t-63.5 -100t-94 -83.5q63 8 124.5 41t123.5 87t125 127t129 161q32 -5 53 -27t21 -61q0 -27 -11.5 -61t-38 -76t-68.5 -90.5t-103 -103.5q-90 -81 -179 -130t-169 -49q-42 0 -79 14.5t-69 46.5q-42 -26 -89.5 -37.5t-96.5 -11.5q-51 0 -101 10.5t-96 27.5
q-67 -200 -145 -394t-157 -374zM505 428q16 29 25 65t9 71q0 33 -8 62.5t-24.5 52t-43 36t-63.5 13.5h-29.5t-21.5 -1.5t-21.5 -4t-29.5 -7.5q-24 -65 -46.5 -118t-43.5 -102.5t-41 -100t-40 -111.5q51 -27 112 -27q36 0 73 10t71.5 31t65.5 53.5t56 77.5z" />
    <glyph glyph-name="q" unicode="q" horiz-adv-x="1159" 
d="M1268 477q-85 -117 -164.5 -196t-152 -129t-136 -76t-116.5 -38t-93.5 -14t-66.5 -4q-76 -123 -140.5 -236t-127.5 -224t-128.5 -224t-143.5 -235q-48 0 -88 17t-69 53l429 862q-6 -1 -11.5 -1h-11.5q-72 0 -130 29t-99.5 75.5t-64 104.5t-22.5 115q0 42 16 89.5t43 96
t62.5 96t73.5 89.5t76.5 76t71.5 55q41 26 78 36t72 10q36 0 63.5 -7.5t54 -16.5t55.5 -16.5t68 -7.5q29 0 61 -19t59 -48.5t45 -65t18 -67.5q0 -26 -10 -60t-26 -72t-35.5 -76.5t-38 -72t-34.5 -59.5l-24 -39q-7 -11 -7 -19q0 -12 21 -12q20 0 53.5 10.5t71.5 28t77 41
t70 49.5q63 53 116.5 104.5t107.5 114.5zM377 240q37 26 82.5 77t86 114.5t68 133t27.5 132.5q0 7 -1 19t-3 24t-5 20.5t-8 8.5q-13 0 -43 -19.5t-68 -52.5t-79 -77.5t-74.5 -93.5t-55.5 -100.5t-22 -99.5q0 -23 7 -37.5t20 -24t30 -15t38 -9.5z" />
    <glyph glyph-name="r" unicode="r" horiz-adv-x="1006" 
d="M-16 531q6 17 20.5 34.5t24.5 32.5q10 16 14.5 41t6.5 55t3 61.5t4 60t8.5 51.5t17.5 35q18 6 33 6q22 0 37.5 -11t31.5 -24.5t34 -24.5t45 -11q94 0 182.5 20.5t164.5 68.5q42 26 86 62.5t82 68.5q8 6 18.5 8.5t18.5 5.5q17 -11 34 -33t30 -48t21 -51t8 -42
q0 -18 -25 -25q-24 -8 -51 -32.5t-55.5 -59.5t-57 -76t-54.5 -81.5t-48.5 -77.5t-38.5 -62q-38 -60 -65 -123.5t-27 -129.5q0 -48 8 -66.5t18 -18.5q23 0 58.5 19.5t77 51t86 71t86 78.5t76.5 74.5t57 59.5q34 36 54 61.5t24 29.5q12 12 29.5 8t34.5 -15.5t29 -26t12 -24.5
q0 -18 -7.5 -38.5t-20 -43.5t-28.5 -47.5t-33 -48.5q-38 -54 -76 -114.5t-85.5 -121.5t-108 -119t-143.5 -107q-47 12 -97 31t-98.5 42.5t-94 51t-83.5 56.5q-66 50 -66 136q0 57 20 122.5t48 127.5t58 114t49 82q-19 -12 -40 -17.5t-42 -5.5q-26 0 -49 8t-37 23
q-6 -36 -21.5 -78t-37.5 -77.5t-49 -59t-55 -23.5q-15 0 -22 10z" />
    <glyph glyph-name="s" unicode="s" horiz-adv-x="887" 
d="M-185 378q35 37 64 65t54.5 51.5t49 44.5t48.5 44.5t53 51.5t62 65q54 58 101 121t81 136q16 34 19.5 70.5t6 73t8 72t25.5 67.5q2 1 7 1q16 0 43 -15t58.5 -39t64 -54t59.5 -59t45 -54t21 -40q1 -5 1.5 -9.5t0.5 -9.5q0 -25 -5.5 -54t-5.5 -56q0 -12 14 -53t30 -98.5
t27 -125t5 -132.5l-13 -32l44 58q19 16 34.5 29t32 28t36.5 34t49 46q0 -3 13.5 -19t30 -34.5t29.5 -34t12 -15.5q-28 -43 -66.5 -95t-87 -105t-106 -103t-123.5 -88.5t-139.5 -62t-152.5 -23.5q-44 0 -94.5 22.5t-98.5 58.5t-88.5 81.5t-65.5 92.5q-24 -20 -52 -29.5
t-41 -9.5t-35.5 2.5t-44 10t-37.5 21t-16 34.5q0 14 10 30t33 39zM480 755q-26 -59 -62 -110t-77.5 -97t-87 -87t-89.5 -79q9 -20 23 -35t30.5 -26t34 -16.5t33.5 -5.5q51 0 94.5 20.5t75.5 54t50 76t18 86.5q0 29 -3.5 60t-9 60t-13.5 54.5t-17 44.5z" />
    <glyph glyph-name="t" unicode="t" horiz-adv-x="806" 
d="M974 932q-31 -16 -84 -30.5t-109.5 -27t-107 -21.5t-77.5 -14q-34 -6 -56.5 -9t-37.5 -5.5t-25 -8t-19.5 -16t-19.5 -29.5t-25 -49q-15 -31 -40 -86t-49 -119t-41 -130t-17 -119q0 -23 4 -43t14 -35q31 0 75 18t95 48.5t105 70.5t104 84t93 89t72 85l132 -81
q-23 -48 -62 -107.5t-87.5 -120t-104.5 -118t-113 -102t-112 -71t-102 -25.5q-34 12 -79 24.5t-93.5 28.5t-95.5 36t-84 47t-60 62.5t-23 80.5q0 126 38 263t117 264q-24 -3 -58.5 -9t-73.5 -12.5t-78.5 -13t-74 -11t-60.5 -6t-36 2.5q-37 12 -37.5 27.5t22.5 32t63 33
t85 31t88 25.5t71 17q60 12 93 20t53 20t35 31.5t39 54.5q14 20 34 53.5t44 72t51.5 77.5t55.5 70t56 51t54 20q59 0 106.5 -20t93.5 -55q-54 -76 -112 -155t-100 -165q28 2 67 7t84 11.5t93 14t93 14.5t85 13t69 9z" />
    <glyph glyph-name="u" unicode="u" horiz-adv-x="1111" 
d="M1242 501q-67 -94 -124 -175q-25 -35 -50 -69.5t-47.5 -65t-40.5 -54t-29 -35.5q-18 -20 -43.5 -42.5t-54 -42t-57.5 -32.5t-54 -13q-50 0 -94 14.5t-79 42t-58 66.5t-30 88q-16 -22 -38.5 -46.5t-49.5 -45t-57.5 -34t-61.5 -13.5t-64.5 9t-65 22t-60 26t-50.5 22
q-64 25 -94 78.5t-30 118.5q0 52 19 100.5t45 96t52.5 95t41.5 98.5q6 19 15 31.5t19.5 20.5t21 12.5t19.5 7.5l174 -157q-8 -26 -23 -67t-31 -84t-27.5 -80.5t-11.5 -54.5v-24t1 -24.5t4.5 -20t9.5 -9.5q26 9 54 41t56.5 76t57 95t53.5 97.5t46.5 84t37.5 54.5q12 13 34 13
q21 0 37 -13t24 -32q10 -23 19 -41t19.5 -33.5t24 -30.5t31.5 -33q13 -13 13 -27q0 -26 -6.5 -58t-15 -65.5t-15 -66.5t-6.5 -61q0 -11 7 -22t21 -10q13 1 38.5 17t57 42.5t68 59.5t72 67.5t68.5 67.5l58.5 58.5t41 40.5t16.5 14z" />
    <glyph glyph-name="v" unicode="v" horiz-adv-x="1231" 
d="M373 762q44 0 80 -14t63.5 -45t48 -80.5t34.5 -120.5q-28 -66 -61 -117t-61 -97.5t-47 -92.5t-19 -100q0 -23 5 -46.5t14 -50.5q57 6 102.5 40.5t81 87t61.5 117t45 130.5t31.5 127.5t20.5 108.5q-12 16 -22.5 46.5t-10.5 57.5q0 19 7 32t26 13q13 0 24 -6.5t21 -14.5
q11 -9 32 -27t48.5 -39.5t60 -44t67 -41t68.5 -30.5t65 -12q27 0 52.5 8t52.5 18t56.5 18t64.5 8q32 0 54 -12.5t22 -43.5q0 -38 -18.5 -70t-49.5 -58t-69.5 -45.5t-78.5 -33t-77.5 -20.5t-66.5 -7q-21 0 -40 7t-36.5 17.5t-32.5 24t-27 26.5q-16 -61 -40 -127t-56 -130
t-72 -122t-88.5 -101.5t-105 -69.5t-120.5 -26q-58 0 -123 16t-119.5 48.5t-90.5 82t-36 115.5q0 65 21 126.5t53.5 120.5t70 116t70.5 113l-3 18q-35 -1 -59.5 -5.5t-46.5 -15.5t-44 -29t-52 -46q-10 -9 -23.5 -21t-27.5 -22.5t-27.5 -17.5t-23.5 -7q-14 0 -28 4.5
t-25 12.5t-18.5 19.5t-7.5 25.5q0 22 20.5 53t54.5 64.5t78.5 67t92.5 60t96 43t89 16.5z" />
    <glyph glyph-name="w" unicode="w" horiz-adv-x="1479" 
d="M1624 420q-16 -17 -47 -42t-71 -48t-85.5 -39.5t-89.5 -16.5q-24 0 -41 5t-30 13t-23.5 19t-21.5 22q-8 -30 -28 -82t-50 -113t-68.5 -123.5t-84.5 -113.5t-97.5 -83.5t-107.5 -32.5q-36 0 -79.5 21t-86 52.5t-78.5 67.5t-56 66q-37 -30 -77.5 -57.5t-84 -47.5t-89 -32
t-92.5 -12q-54 0 -103.5 16t-87 46t-59.5 74t-22 100q0 52 13 125.5t38.5 153t62.5 157.5t85 140t106.5 100.5t126.5 38.5q20 0 36 -3.5t32 -11.5t33 -21.5t38 -34.5q-56 -56 -101 -125.5t-76.5 -142.5t-48.5 -143t-17 -126q0 -42 11 -75q58 16 117.5 67t118 126t113.5 169
t103 196q19 8 47 8q25 0 54.5 -6.5t54 -20t41 -34t16.5 -48.5q0 -14 -14 -45.5t-35.5 -73.5t-46.5 -92t-46.5 -101t-35.5 -100t-14 -90q0 -4 0.5 -12.5t1.5 -16.5t3.5 -14.5t5.5 -6.5q20 0 49.5 28.5t64.5 75t73.5 106t76 121.5t72 121.5t62.5 106t47 75t25 28.5
q18 -15 43.5 -43t54 -55.5t57 -48t52.5 -20.5q32 0 67 16.5t76 55.5z" />
    <glyph glyph-name="x" unicode="x" horiz-adv-x="817" 
d="M907 813q-83 -72 -162 -154t-148 -159.5t-125 -143.5t-93 -105q65 -118 109.5 -198.5t73 -133.5t44.5 -83.5t24.5 -47.5l13 -26t10 -19.5t15 -27l28.5 -49.5q15 -16 21.5 -27t6.5 -19q0 -14 -11.5 -24t-19.5 -28q-44 31 -86.5 77t-82.5 99t-77.5 109.5t-71 109
t-62.5 98.5t-52 78q-15 -13 -49 -49.5t-79.5 -87.5t-98.5 -113t-107 -127t-104 -128t-90 -117t-65.5 -94.5t-29.5 -59.5q-11 12 -33 23.5t-43.5 25.5t-39 33t-19.5 45q14 50 49.5 116t84.5 142t109.5 159t124.5 165.5t130 162t126 149.5q-4 9 -9 18t-15.5 23.5t-28.5 37
t-48 59.5t-74.5 91.5t-107.5 132.5q-23 17 -32.5 29.5t-9.5 20.5q0 11 14 16.5t37 5.5q19 0 43 -3.5t47.5 -10t45 -15.5t35.5 -19q27 -20 48.5 -43t43.5 -55t48.5 -76t64.5 -106q49 63 109 138.5t125 150.5t134 143t138 117z" />
    <glyph glyph-name="y" unicode="y" horiz-adv-x="958" 
d="M683 317q24 18 64.5 52.5t86 75t91 82.5t79.5 75l104 -107q-32 -50 -78.5 -101t-99 -99.5t-107 -93t-102.5 -80t-85 -61t-54 -36.5q-16 -26 -40.5 -71t-57 -101t-72.5 -118t-87 -123t-100 -116.5t-112 -98t-123 -67.5t-133 -25q-57 0 -110 12t-93.5 36t-65 59.5
t-24.5 83.5q0 50 26.5 99.5t71.5 98t103.5 94t122.5 87.5t129 80t123 70.5t104.5 58.5t72.5 45q-62 -25 -108 -36t-82 -11q-32 0 -67.5 12t-66 34t-50.5 54t-20 73q0 37 7.5 85.5t24 102t41 108.5t58 105t77 91t96.5 68l168 -155q-41 -39 -73.5 -93t-55 -109.5t-34.5 -105.5
t-12 -82q0 -40 17 -40q28 0 63.5 28t74 73t77.5 102t74.5 114.5t65.5 110t49 89.5q16 30 46 44.5t62 14.5q27 0 45.5 -8t30.5 -21t17 -28t5 -29q0 -11 -10.5 -41t-27 -70.5t-36.5 -86t-38 -86.5t-32.5 -73t-19.5 -45zM-151 -523q0 -7 12 -7q9 0 23 4.5t30.5 12t33.5 18
t32 22.5q51 42 95 82t83 83.5t75 92.5t71 109q-40 -29 -89.5 -67.5t-100 -80t-98 -83.5t-85 -78.5t-60 -65t-22.5 -42.5z" />
    <glyph glyph-name="z" unicode="z" horiz-adv-x="1190" 
d="M-67 485q35 32 67 74t57 87t39.5 91.5t14.5 87.5q-11 15 -21 28.5t-21 27.5q12 31 32.5 48t62.5 16q23 -28 46.5 -47.5t58.5 -19.5q61 0 144 21t169 58t165 87t133 108q10 11 18 16.5t18 5.5q15 0 30 -11.5t27 -28.5t19.5 -36.5t7.5 -35.5q0 -14 -6 -23
q-43 -62 -89.5 -118t-93 -110t-91 -108.5t-84.5 -113.5h45q18 0 37 -1t34 -4t24.5 -8.5t9.5 -15.5t-13.5 -17t-34.5 -12t-46.5 -8t-48.5 -4.5t-41.5 -2.5t-24.5 -2q-22 -27 -44.5 -52t-47.5 -50.5t-52.5 -55t-59.5 -65.5q51 -1 98 -8t92 -15.5t88 -15.5t85 -7
q74 0 141.5 35.5t129 89t117 115.5t105.5 116q12 13 23 13q8 0 16 -7t17.5 -18t21 -25t26.5 -28q-15 -31 -39 -74.5t-55 -93t-68.5 -102t-78 -100t-83 -87t-85.5 -64.5q-39 -23 -81 -31.5t-84 -8.5q-53 0 -106 10t-104 22t-100 22t-92 10q-59 0 -100.5 -20.5t-75.5 -51.5
t-65 -67.5t-68 -68.5q-105 39 -151 71t-46 70q0 33 31 75t85 102q45 50 86 96t80.5 90t78.5 87.5t78 90.5l-171 -3l-7 -5q-37 -29 -65.5 -39.5t-49.5 -10.5q-17 0 -29 4.5t-20 10.5q-9 6 -15 15zM189 554q15 2 37 6q19 3 47.5 6l66.5 7q30 36 60.5 75t63.5 82
q-22 -8 -51 -14.5t-59.5 -12t-59.5 -8.5t-51 -3q-11 -29 -20 -51.5t-19.5 -40.5t-23.5 -33.5t-31 -31.5z" />
    <glyph glyph-name="braceleft" unicode="{" horiz-adv-x="938" 
d="M485 699q7 36 -1 68.5t-19 64.5t-19 64.5t0 67.5q12 57 46 110.5t82.5 100.5t107 86.5t120 69t122.5 47t113 21.5q24 0 45 -4t36 -12t22.5 -20.5t3.5 -30.5q-7 -33 -42 -60.5t-83.5 -54t-102.5 -53t-98.5 -56.5t-73 -64.5t-24.5 -77.5q-3 -22 4 -44t18 -43.5t24 -44
t23 -45.5t14 -48t-2 -52q-5 -21 -25.5 -47.5t-49.5 -54.5t-63 -55t-66 -51q45 -30 71 -51.5t21 -50.5q-7 -41 -39 -81t-76.5 -79.5t-95.5 -80t-96 -82t-78 -85.5t-41 -91q-6 -32 13.5 -53.5t53.5 -35t76 -21.5t83 -14q-7 -33 -36 -59t-71 -43.5t-93.5 -26.5t-103 -9t-99 9
t-83 28t-54 48t-11.5 69q11 60 37 112.5t61.5 98.5t79 87t89 79t91 73.5t85.5 71.5q-36 11 -79 23.5t-80 27t-62 29.5t-24 31q2 39 18 60t37 33q68 34 127 69q25 15 50.5 31.5t48 33.5t40.5 34t28 33z" />
    <glyph glyph-name="bar" unicode="|" horiz-adv-x="776" 
d="M895 1210q-13 -29 -46.5 -93t-81.5 -151t-106 -191.5t-120 -214t-123.5 -218.5t-115.5 -206t-98 -175.5t-70 -126.5q-24 -45 -64 -70.5t-80 -32.5q-15 -2 -31 1t-28 10.5t-17.5 19t-0.5 27.5q28 92 76.5 202t110 227.5t130.5 238t137.5 232.5t132 211.5t112.5 175.5
t79.5 123.5t33.5 55.5q26 2 69.5 -10.5t100.5 -34.5z" />
    <glyph glyph-name="braceright" unicode="}" horiz-adv-x="845" 
d="M398 397q-24 13 -41.5 46.5t-10.5 78.5q20 89 58.5 158t81.5 124t83 99.5t62.5 85.5t19.5 81t-45 86q-15 16 -33.5 22.5t-33.5 11t-22.5 11.5t-0.5 25q23 59 64 91.5t87.5 41.5t94 -2.5t84.5 -39.5t58 -70t15 -93q-7 -72 -30 -126t-54 -98.5t-66 -82.5t-67.5 -77.5
t-58 -84t-36.5 -101.5q10 -12 29.5 -18.5t43.5 -12t48.5 -10.5t44.5 -13.5t32 -22t10 -35.5q-4 -34 -31 -58.5t-66 -45.5t-84 -42t-85 -48t-68.5 -63.5t-33.5 -88.5q-2 -24 3.5 -44.5t13.5 -40t15.5 -40t8.5 -44.5q4 -91 -29 -158.5t-90.5 -113.5t-133 -70.5t-156 -28.5
t-159 13t-142.5 54q25 5 40.5 8.5t32 8t40.5 11.5t66 20q65 20 109.5 42.5t72 45.5t41 45t18.5 40t3.5 31.5t-3.5 18.5q-20 41 -22 86t9 91t33.5 90.5t51.5 83.5t62.5 70.5t65.5 51.5z" />
    <glyph glyph-name="asciitilde" unicode="~" horiz-adv-x="1079" 
d="M173 332q0 19 13.5 45.5t35.5 56t50 60t56 57.5t54 48t45 33q0 -1 3 -1q6 0 25 -15t46 -41.5t60 -61.5t68 -74q22 24 46 44.5t47.5 41t45.5 41.5t42 46l118 -97q10 -7 10 -22q0 -40 -29.5 -80t-71.5 -71.5t-89 -51t-82 -19.5q-40 0 -70 15t-51 35t-35 41.5t-21 34.5
q-9 -9 -36.5 -30t-63 -43.5t-72.5 -39.5t-64 -17q-13 0 -27 5.5t-26 14.5t-19.5 20.5t-7.5 24.5z" />
    <glyph glyph-name="exclamdown" unicode="&#xa1;" horiz-adv-x="817" 
d="M-128 -401q59 144 112.5 273t113 248.5t130.5 232t165 223.5q14 -11 34.5 -23.5t39.5 -24.5t32.5 -23t13.5 -19q0 -17 -12 -65t-33 -116t-49.5 -150.5t-60.5 -167.5t-66 -167.5t-67 -151.5t-63 -118t-54 -68q-12 -10 -44.5 -8t-69 16.5t-71 41.5t-51.5 67zM723 742
q-35 -60 -67.5 -94t-75.5 -34q-5 0 -14 1.5t-19 4.5t-20 6.5t-16 7.5q-14 21 -26 38.5t-22 35.5t-15.5 37.5t-5.5 44.5q0 9 10.5 29t27.5 43t39.5 45.5t45.5 38.5q41 -8 81 -24t65.5 -41t31.5 -59.5t-20 -79.5z" />
    <glyph glyph-name="cent" unicode="&#xa2;" horiz-adv-x="1728" 
d="M862 34q82 0 155 30t131 79h-570q57 -49 129 -79t155 -30zM626 189h564q45 55 70 124t25 147q0 80 -26.5 150t-80.5 139zM862 977q-104 0 -197.5 -39.5t-164 -109t-112.5 -164t-42 -204.5q0 -103 39.5 -196t108.5 -163.5t163.5 -112.5t204.5 -42q35 0 70 5.5t68 15.5
q78 23 146.5 68t119.5 109t80.5 144t29.5 172q0 101 -38.5 194.5t-107 165t-163 114.5t-205.5 43zM862 -14q-100 0 -186 38.5t-149.5 103.5t-99.5 151t-36 181q0 94 35 179.5t98 151t149.5 104t188.5 38.5q67 0 124 -17q72 -19 135 -60t110.5 -100t75 -134t27.5 -162
q0 -98 -37 -184.5t-101.5 -151t-150.5 -101.5t-183 -37zM533 730q-46 -55 -71.5 -122.5t-25.5 -147.5q0 -82 28.5 -155t77.5 -131l555 556h-564zM862 887q-83 0 -155.5 -29t-130.5 -80h566q-54 50 -126 79.5t-154 29.5zM1012 -83l-90 -16l4 -26l34 6l16 -89l26 5l-16 89
l31 6zM1113 -117q-2 6 -9 8l-11 5h-15h-7h-9h-2v1q-3 3 -3 4l-2 1q2 1 2 4q0 1 1 1h2q0 1 5 1v3h1h5h3q4 0 4 1q4 0 8 1q0 2 1 3t1 2l5 10l-7 3q-8 4 -12 4q-2 0 -4.5 1t-4.5 1q-4 0 -6 -1t-4 -1l-13 -7q-2 -2 -4 -4.5t-3 -6.5q-7 -6 -7 -14v-5t2 -7q3 -8 10 -13
q1 -1 3.5 -2.5t4.5 -3.5q3 0 6.5 -1t5.5 -1h13h9h2q2 0 4 -2q3 0 3 -2h3v-5q0 -2 -0.5 -3t-0.5 -2v-1q-2 0 -3 -2.5t-2 -2.5q-2 -2 -6 -2q0 -1 -2 -1h-3q-2 0 -3 0.5t-3 0.5h-6h-8l-4 -2q-1 0 -1 -1.5t-1 -1.5l-5 -8q1 -4 3 -5.5t4 -4.5q3 -1 6.5 -2t6.5 -1q8 -3 12 -2
q3 0 7 1t8 1q3 2 6.5 3.5t7.5 4.5q4 4 5.5 6t4.5 7q1 4 3 7t2 8q0 4 -0.5 7.5t-3.5 6.5q0 8 -5 11zM1163 -122q-2 3 -4 3t-3.5 1t-3.5 1q-1 -2 -6 -2l-7 -4q-1 -1 -1 -3v-2q-2 -2 -2 -4v-2q0 -3 1 -4q0 -1 1 -1q0 -6 3 -6q2 -5 7 -5h6q5 0 7 2q1 2 3 2.5t2 2.5v2q0 2 2 2
l3 3v2q0 6 -5 6q0 6 -3 6zM886 -175q-1 0 -1 4q0 1 -1.5 1t-1.5 1q0 4 -1 4l-41 60q0 1 -2 2q-2 3 -9 3h-9h-14l3 -119l27 1v79l51 -79h25v118h-30zM639 -85l48 -18l8 25l-72 26l-42 -105l26 -12l15 41l38 -15l10 26l-37 14zM788 -114l-9 11q-3 3 -6.5 5t-7.5 4t-7 2.5
t-8 2.5q-5 1 -8.5 1h-7.5q-10 0 -14 -4q-4 -1 -7.5 -2t-7.5 -4l-11 -10q-4 -8 -10 -11q-2 -5 -3.5 -8.5t-1.5 -6.5v-18l3 -15l6 -13l11 -11q3 -4 7 -5.5t6 -3.5q7 -4 15 -4q5 -1 8.5 -1h7.5q5 0 13 2q4 2 8.5 3t6.5 4q6 2 12 10l8 11q4 7 7 17v15q0 3 -1 6.5t-3 8.5
q-1 5 -2.5 7.5t-3.5 6.5zM770 -153q0 -3 -1.5 -6.5t-3.5 -5.5q-3 -4 -4.5 -5.5l-4.5 -4.5q-3 -1 -5.5 -2t-6.5 -1q-6 -3 -11 0q-4 0 -7.5 1t-5.5 2l-8 10q-2 2 -2.5 5.5t-0.5 6.5q-3 5 0 14q0 6 5 11l6 9l13 5h11l12 -5l9 -9q2 -3 3.5 -5t1.5 -6q2 -8 0 -14zM1349 186
q-1 -2 -2.5 -4t-1.5 -6q0 -2 1.5 -4t2.5 -4l40 -58l-69 10h-10l-9 -6l-8 -16l96 -65l16 22l-46 33l60 -13l11 20l-33 50l47 -30l15 24l-98 64zM1336 59l-13 13l-15 3q-4 3 -15 3q-4 0 -7.5 -0.5t-7.5 -2.5l-13 -3q-4 -3 -8 -6.5t-7 -6.5l-4 -6t-4 -5q-3 -4 -4 -7.5t-3 -7.5
q0 -4 -1 -7.5t-1 -7.5v-7t2 -8l4 -14l10 -12l14 -10q4 -1 7 -3.5t8 -2.5q4 0 7.5 -1.5t7.5 -1.5q2 0 6 1.5t9 1.5q2 0 5.5 2.5t7.5 3.5q7 3 13 10l10 12q1 2 3 5.5t2 8.5q1 4 1 14v16l-6 12q-2 4 -4 7.5t-4 6.5zM1323 6q-4 -9 -8 -10q-7 -7 -10 -8q-3 -2 -6.5 -2h-5.5
q-4 0 -7 1t-5 1l-11 8q-4 4 -7 11q-1 4 -1 11q0 8 1 11q3 8 7 12l11 8q3 0 6 0.5t6 0.5q4 0 12 -2q2 -2 4.5 -3.5t5.5 -5.5q3 -1 4.5 -4t3.5 -6t2 -12v-5.5t-2 -5.5zM1249 -54l-7 -4q-2 0 -3 -2.5t-1 -4.5l-5 -9l-9 -6q-4 -2 -6 -3.5t-5 -1.5q-7 -3 -13 0q-2 2 -5 2.5
t-6 2.5q-6 4 -7 11q-5 2 -5 11q-4 3 0 14q0 2 0.5 4t1.5 7l4 4t5 3q7 4 9 4q3 1 10 1q2 0 10 4q2 3 5 5l2 6v9q-3 4 -12 4h-13l-14 -5l-11 -5q-2 -2 -5.5 -4.5t-6.5 -6.5q-2 -2 -4 -5.5t-4 -7.5l-6 -15v-16q0 -4 1.5 -7t1.5 -7l6 -15q3 -4 6 -6t5 -5l14 -10l12 -2
q5 -2 16 -2q4 0 7 1t7 2q5 1 8.5 3.5t6.5 5.5l5 2.5t5 4.5q3 1 5 4t5 6l4 14q4 4 4 13l-12 2h-6zM559 -14l-102 -74l16 -9q0 -1 2 -1h3q2 0 2.5 -0.5t2.5 0.5h5q3 0 4 1l11 9l39 -22l-2 -15v-5q0 -2 1 -3q0 -1 1 -1v-3q0 -2 2 -2l4 -3l16 -10l17 125zM548 -56v-2v-3l-2 -22
l-18 11l16 14h2q2 0 2 1v1v1h1q1 1 2 1zM518 -19l17 20l-69 59l-20 -21l27 -21l-58 -67l20 -18l60 69zM298 137l82 -10q2 0 6 1q2 0 2.5 0.5t2.5 0.5l11 8l-45 77l-23 -14l26 -44l-82 9q-2 0 -5.5 -0.5t-7.5 -3.5l-10 -5l45 -78l23 14zM397 29l22 19l-27 30l14 11l31 -39
l21 18l-49 60l-90 -76l51 -58l19 18l-32 37l17 11zM231 468l50 3q2 -2 4.5 -4t3.5 -4q2 -2 3.5 -5t1.5 -5q1 -7 4 -12q0 -3 0.5 -6t0.5 -5q0 -8 -0.5 -14t-3.5 -11q-1 -7 -4 -12t-7 -10q-7 -9 -19 -13q-11 -7 -22 -7h-18q-4 2 -7.5 3.5t-7.5 3.5q-4 1 -6.5 3t-5.5 4l-6 6
t-5 7q-2 2 -3.5 5.5t-3.5 7.5q-1 5 -1.5 9t-1.5 9v6.5t1 5.5q2 8 2 13q2 3 3.5 5.5t3.5 5.5q2 2 3.5 5t3.5 5l4 -4q2 -1 3 -2t2 -1q1 -3 1 -7v-4t-2 -3q-4 -5 -4 -11q-1 -5 -1 -13t3 -17q3 -4 5.5 -7t4.5 -6q5 -5 14 -7q7 -4 17 -3q6 0 12 3l4 2t4 3t4.5 3t4.5 4q1 2 2.5 4
t3.5 4q0 4 1 6.5t2 5.5q1 4 1 11q-1 3 -1.5 6.5t-2.5 7.5q0 3 -5 10l-18 -1v-5v-5q0 -2 -3 -5q-1 -1 -1.5 -2t-2.5 -2t-6 -1h-6zM304 558l-9 -76l-118 12l8 75l19 -1l-6 -56l30 -4l5 46l20 -1l-5 -46l31 -3l5 57zM204 578l-17 5l22 89l19 -5l-10 -37l97 -23l-4 -18l-97 24z
M245 714l-17 9l41 82l16 -8l-15 -32l89 -45l-8 -17l-90 45zM432 832l-11 -16l-40 30l-35 -47l41 -30l-11 -15l-97 70l11 15l40 -29l35 47l-40 30l11 16zM496 893l-54 -52l-83 86l53 53l14 -15l-39 -39l20 -21l33 31l13 -14l-32 -30l21 -23l41 39zM554 1016l10 -17l-39 -24
l24 -42l-14 -11l-63 101l63 40l9 -16l-46 -30l17 -26zM602 1016q0 -7 6 -10q1 -3 9 -7q2 -1 5 -1h5q6 -1 11 1q7 3 10 7q5 5 6 10q1 2 1 10q0 7 -1 11l-27 67l17 8l29 -68q1 -5 1.5 -9t0.5 -9q0 -10 -3 -19q-2 -4 -4.5 -7.5t-7.5 -6.5q-2 -5 -5.5 -7t-8.5 -4t-9.5 -3
t-9.5 -1q-8 0 -18 4q-5 2 -8.5 4t-6.5 6q-7 7 -10 16l-30 66l18 8zM702 1003l-29 116l20 5l22 -97l49 11l4 -20zM771 1018l-12 119l20 2l10 -98l51 5v-20zM904 1023l-19 3l12 118l44 -5q6 0 14 -4q9 -5 11 -10q4 -3 7 -13q3 -7 2 -14q-2 -4 -2.5 -7.5t-2.5 -8.5
q-6 -8 -9 -11q-4 -3 -14 -7q-3 -1 -13 -1l-25 3zM935 1082h7q3 1 7 6q3 0 3 5q2 1 4 7q0 5 -1 7t-2 3.5t-1 2.5l-3 3t-3 2t-3.5 1t-2.5 1l-25 3l-5 -39zM991 1011l-19 5l31 113l43 -11q6 0 12 -6q5 -4 9 -10q4 -5 4 -13q1 -5 0.5 -8t-0.5 -7q-2 -5 -5 -10t-6 -7
q-7 -5 -10 -5q-2 -2 -4.5 -2.5t-4.5 -1.5l22 -57l-15 2q-2 1 -3.5 2.5t-3.5 2.5q-3 1 -5 8l-19 46l-14 4zM1017 1105l-9 -31l24 -6q2 0 3 -0.5t3 0.5q2 0 3.5 0.5t3.5 0.5t2 1.5t1 2.5q4 4 4 6q1 3 1 7q-1 2 -1 3.5t-1 3.5q-1 1 -2.5 1.5t-1.5 2.5q-3 3 -6 3zM1077 1048
q1 4 3.5 7.5t5.5 6.5q2 3 5 5.5t6 4.5q3 3 6.5 4t8.5 3q4 3 14 3h15q9 -1 17 -6q7 -3 14 -8q3 -4 5.5 -7t4.5 -5q2 -3 3.5 -6.5t3.5 -7.5q1 -4 2 -7.5t1 -7.5v-7.5t-2 -8.5q-1 -4 -1.5 -7.5t-3.5 -7.5l-3.5 -7l-3.5 -7q-4 -3 -7 -5t-5 -6q-4 -2 -7 -4t-7 -4q-6 0 -16 -2
q-12 0 -17 1t-15 5q-11 6 -18 15q-8 9 -13 21q-2 6 -2 11v12q0 11 6 22zM1094 1041q-2 -3 -2.5 -6t-2.5 -6v-10q0 -2 1 -5t2 -5q1 -6 4 -10q2 -2 3.5 -4t3.5 -3q3 -4 9 -6q7 -4 11 -4h11q7 0 12 1q4 4 8 4q3 2 5 4t4 3q2 3 3 5.5t3 4.5q2 4 2.5 8t1.5 9q0 4 -0.5 7.5
t-0.5 7.5q-2 4 -4.5 7.5t-4.5 5.5q-7 7 -14 10q-2 2 -5 2.5t-6 1.5h-10q-7 0 -10 -2q-4 -2 -6 -2.5t-4 -1.5l-4 -4t-3 -4q-7 -5 -7 -8zM1263 1016l9 -8q1 -2 2 -3.5t3 -3.5q0 -5 -2 -8l-27 -86l82 38q1 1 8 1q4 0 6 -3l10 -8l-117 -54l-14 11zM1319 790l-46 56l90 76l48 -56
l-14 -14l-37 44l-22 -19l28 -36l-16 -11l-27 35l-24 -21l35 -42zM1334 765l-9 16l101 61l23 -37q2 -3 2.5 -6t2.5 -8q2 -7 -2 -12q-2 -9 -5 -13l-4.5 -4.5t-6.5 -5.5q-3 -1 -5 -1.5t-5 -1.5q-3 0 -5 -1t-5 1q-4 0 -10 2q-3 1 -5 2t-4 3l-23 -59l-9 13q-4 2 -4 7q0 7 3 9
l20 48l-8 12zM1421 815l-29 -16l13 -19q3 -5 4 -6q1 0 6 -3h6q2 0 5 3q2 0 6 4q0 2 1 3t1 3q1 1 1 6q-1 1 -1 2.5t-2 3.5zM1476 695q1 1 1 8q0 3 -1 5q-2 2 -2 6q-3 0 -5 4q-2 1 -5 1q-3 1 -5 0t-2.5 -2t-1.5 -2t-2 -1.5t-2 -2.5v-7v-10v-3v-2v-10q0 -2 -0.5 -4.5t-0.5 -4.5
q-4 -14 -19 -21q-4 -2 -7.5 -3t-8.5 1q-6 0 -14 2q-3 3 -6.5 5t-5.5 6q-3 2 -5 5.5t-4 7.5q-2 10 -2 15q0 3 2 13q0 3 3 5l2 4q0 4 2 4q4 2 3 2l4 -2q3 -5 5 -6q0 -2 0.5 -3t0.5 -2q0 -4 -3 -7v-1v-7q0 -5 2 -9q0 -1 1 -2.5t2 -3.5q2 -1 3.5 -2.5t3.5 -2.5q1 -1 2.5 -1
t3.5 -2h4.5t4.5 2q2 0 5 3q2 4 2 5q1 3 1 8v7v4v12q0 8 2 13q1 2 2.5 4.5t3.5 5.5q3 2 5 3.5t6 3.5q8 3 14 2q6 0 12 -4q3 -2 6.5 -3.5t5.5 -5.5q3 -3 6 -11q2 -6 2 -10q0 -6 -1 -10q0 -4 -3 -10q-1 -2 -1 -4t-2 -4l-6 4q-3 1 -4 2.5t-3 3.5l-1.5 4.5t0.5 4.5zM1404 607
l-5 18l114 34l5 -19zM1467 607h19q6 0 14 -4q4 -1 7.5 -3.5t5.5 -4.5q3 -2 6.5 -4.5t5.5 -6.5q4 -8 8 -12q2 -8 4 -18v-15q-2 -10 -4 -15t-4 -8.5t-4 -6.5l-10 -10q-4 -4 -7.5 -5t-6.5 -3q-7 -4 -15 -4q-10 -1 -19 0q-8 0 -15 4q-2 2 -5.5 3t-7.5 4q-3 2 -5.5 5.5t-4.5 5.5
q-6 5 -8 15q-2 3 -3.5 6.5t-1.5 8.5q-1 13 1 24q5 12 10 20q7 9 18 16q5 3 11 5.5t11 2.5zM1470 588q-7 0 -10 -4q-5 -1 -10 -5q-4 -1 -6 -7q-5 -5 -5 -9q-2 -2 -2.5 -5t-1.5 -5v-11q2 -8 4 -11q0 -6 5 -9q1 -3 3 -5t3 -4q3 -1 5 -2.5t5 -2.5q2 -2 5 -2h5q5 -3 11 0
q11 0 17 5q5 2 12 11q6 8 6 15q3 7 1 16q0 6 -2 10q-2 3 -3 5l-2 4l-4 4t-4 3q-5 4 -10 5q-3 4 -11 4q-4 2 -11 0zM1417 371l2 16l96 60l-91 6l1 19l118 -9l-1 -12q0 -5 -1 -8q-3 -3 -4 -5l-81 -51l82 -6l-2 -19z" />
    <glyph glyph-name="sterling" unicode="&#xa3;" 
d="M807 34q82 0 155 30t131 79h-570q57 -49 129 -79t155 -30zM571 189h564q45 55 70 124t25 147q0 80 -26.5 150t-80.5 139zM807 977q-104 0 -197.5 -39.5t-164 -109t-112.5 -164t-42 -204.5q0 -103 39.5 -196t108.5 -163.5t163.5 -112.5t204.5 -42q35 0 70 5.5t68 15.5
q78 23 146.5 68t119.5 109t80.5 144t29.5 172q0 101 -38.5 194.5t-107 165t-163 114.5t-205.5 43zM807 -14q-100 0 -186 38.5t-149.5 103.5t-99.5 151t-36 181q0 94 35 179.5t98 151t149.5 104t188.5 38.5q67 0 124 -17q72 -19 135 -60t110.5 -100t75 -134t27.5 -162
q0 -98 -37 -184.5t-101.5 -151t-150.5 -101.5t-183 -37zM478 730q-46 -55 -71.5 -122.5t-25.5 -147.5q0 -82 28.5 -155t77.5 -131l555 556h-564zM807 887q-83 0 -155.5 -29t-130.5 -80h566q-54 50 -126 79.5t-154 29.5zM957 -83l-90 -16l4 -26l34 6l16 -89l26 5l-16 89l31 6
zM1058 -117q-2 6 -9 8l-11 5h-15h-7h-9h-2v1q-3 3 -3 4l-2 1q2 1 2 4q0 1 1 1h2q0 1 5 1v3h1h5h3q4 0 4 1q4 0 8 1q0 2 1 3t1 2l5 10l-7 3q-8 4 -12 4q-2 0 -4.5 1t-4.5 1q-4 0 -6 -1t-4 -1l-13 -7q-2 -2 -4 -4.5t-3 -6.5q-7 -6 -7 -14v-5t2 -7q3 -8 10 -13q1 -1 3.5 -2.5
t4.5 -3.5q3 0 6.5 -1t5.5 -1h13h9h2q2 0 4 -2q3 0 3 -2h3v-5q0 -2 -0.5 -3t-0.5 -2v-1q-2 0 -3 -2.5t-2 -2.5q-2 -2 -6 -2q0 -1 -2 -1h-3q-2 0 -3 0.5t-3 0.5h-6h-8l-4 -2q-1 0 -1 -1.5t-1 -1.5l-5 -8q1 -4 3 -5.5t4 -4.5q3 -1 6.5 -2t6.5 -1q8 -3 12 -2q3 0 7 1t8 1
q3 2 6.5 3.5t7.5 4.5q4 4 5.5 6t4.5 7q1 4 3 7t2 8q0 4 -0.5 7.5t-3.5 6.5q0 8 -5 11zM1108 -122q-2 3 -4 3t-3.5 1t-3.5 1q-1 -2 -6 -2l-7 -4q-1 -1 -1 -3v-2q-2 -2 -2 -4v-2q0 -3 1 -4q0 -1 1 -1q0 -6 3 -6q2 -5 7 -5h6q5 0 7 2q1 2 3 2.5t2 2.5v2q0 2 2 2l3 3v2q0 6 -5 6
q0 6 -3 6zM831 -175q-1 0 -1 4q0 1 -1.5 1t-1.5 1q0 4 -1 4l-41 60q0 1 -2 2q-2 3 -9 3h-9h-14l3 -119l27 1v79l51 -79h25v118h-30zM584 -85l48 -18l8 25l-72 26l-42 -105l26 -12l15 41l38 -15l10 26l-37 14zM733 -114l-9 11q-3 3 -6.5 5t-7.5 4t-7 2.5t-8 2.5q-5 1 -8.5 1
h-7.5q-10 0 -14 -4q-4 -1 -7.5 -2t-7.5 -4l-11 -10q-4 -8 -10 -11q-2 -5 -3.5 -8.5t-1.5 -6.5v-18l3 -15l6 -13l11 -11q3 -4 7 -5.5t6 -3.5q7 -4 15 -4q5 -1 8.5 -1h7.5q5 0 13 2q4 2 8.5 3t6.5 4q6 2 12 10l8 11q4 7 7 17v15q0 3 -1 6.5t-3 8.5q-1 5 -2.5 7.5t-3.5 6.5z
M715 -153q0 -3 -1.5 -6.5t-3.5 -5.5q-3 -4 -4.5 -5.5l-4.5 -4.5q-3 -1 -5.5 -2t-6.5 -1q-6 -3 -11 0q-4 0 -7.5 1t-5.5 2l-8 10q-2 2 -2.5 5.5t-0.5 6.5q-3 5 0 14q0 6 5 11l6 9l13 5h11l12 -5l9 -9q2 -3 3.5 -5t1.5 -6q2 -8 0 -14zM1294 186q-1 -2 -2.5 -4t-1.5 -6
q0 -2 1.5 -4t2.5 -4l40 -58l-69 10h-10l-9 -6l-8 -16l96 -65l16 22l-46 33l60 -13l11 20l-33 50l47 -30l15 24l-98 64zM1281 59l-13 13l-15 3q-4 3 -15 3q-4 0 -7.5 -0.5t-7.5 -2.5l-13 -3q-4 -3 -8 -6.5t-7 -6.5l-4 -6t-4 -5q-3 -4 -4 -7.5t-3 -7.5q0 -4 -1 -7.5t-1 -7.5
v-7t2 -8l4 -14l10 -12l14 -10q4 -1 7 -3.5t8 -2.5q4 0 7.5 -1.5t7.5 -1.5q2 0 6 1.5t9 1.5q2 0 5.5 2.5t7.5 3.5q7 3 13 10l10 12q1 2 3 5.5t2 8.5q1 4 1 14v16l-6 12q-2 4 -4 7.5t-4 6.5zM1268 6q-4 -9 -8 -10q-7 -7 -10 -8q-3 -2 -6.5 -2h-5.5q-4 0 -7 1t-5 1l-11 8
q-4 4 -7 11q-1 4 -1 11q0 8 1 11q3 8 7 12l11 8q3 0 6 0.5t6 0.5q4 0 12 -2q2 -2 4.5 -3.5t5.5 -5.5q3 -1 4.5 -4t3.5 -6t2 -12v-5.5t-2 -5.5zM1194 -54l-7 -4q-2 0 -3 -2.5t-1 -4.5l-5 -9l-9 -6q-4 -2 -6 -3.5t-5 -1.5q-7 -3 -13 0q-2 2 -5 2.5t-6 2.5q-6 4 -7 11
q-5 2 -5 11q-4 3 0 14q0 2 0.5 4t1.5 7l4 4t5 3q7 4 9 4q3 1 10 1q2 0 10 4q2 3 5 5l2 6v9q-3 4 -12 4h-13l-14 -5l-11 -5q-2 -2 -5.5 -4.5t-6.5 -6.5q-2 -2 -4 -5.5t-4 -7.5l-6 -15v-16q0 -4 1.5 -7t1.5 -7l6 -15q3 -4 6 -6t5 -5l14 -10l12 -2q5 -2 16 -2q4 0 7 1t7 2
q5 1 8.5 3.5t6.5 5.5l5 2.5t5 4.5q3 1 5 4t5 6l4 14q4 4 4 13l-12 2h-6zM504 -14l-102 -74l16 -9q0 -1 2 -1h3q2 0 2.5 -0.5t2.5 0.5h5q3 0 4 1l11 9l39 -22l-2 -15v-5q0 -2 1 -3q0 -1 1 -1v-3q0 -2 2 -2l4 -3l16 -10l17 125zM493 -56v-2v-3l-2 -22l-18 11l16 14h2q2 0 2 1
v1v1h1q1 1 2 1zM463 -19l17 20l-69 59l-20 -21l27 -21l-58 -67l20 -18l60 69zM243 137l82 -10q2 0 6 1q2 0 2.5 0.5t2.5 0.5l11 8l-45 77l-23 -14l26 -44l-82 9q-2 0 -5.5 -0.5t-7.5 -3.5l-10 -5l45 -78l23 14zM342 29l22 19l-27 30l14 11l31 -39l21 18l-49 60l-90 -76
l51 -58l19 18l-32 37l17 11zM176 468l50 3q2 -2 4.5 -4t3.5 -4q2 -2 3.5 -5t1.5 -5q1 -7 4 -12q0 -3 0.5 -6t0.5 -5q0 -8 -0.5 -14t-3.5 -11q-1 -7 -4 -12t-7 -10q-7 -9 -19 -13q-11 -7 -22 -7h-18q-4 2 -7.5 3.5t-7.5 3.5q-4 1 -6.5 3t-5.5 4l-6 6t-5 7q-2 2 -3.5 5.5
t-3.5 7.5q-1 5 -1.5 9t-1.5 9v6.5t1 5.5q2 8 2 13q2 3 3.5 5.5t3.5 5.5q2 2 3.5 5t3.5 5l4 -4q2 -1 3 -2t2 -1q1 -3 1 -7v-4t-2 -3q-4 -5 -4 -11q-1 -5 -1 -13t3 -17q3 -4 5.5 -7t4.5 -6q5 -5 14 -7q7 -4 17 -3q6 0 12 3l4 2t4 3t4.5 3t4.5 4q1 2 2.5 4t3.5 4q0 4 1 6.5
t2 5.5q1 4 1 11q-1 3 -1.5 6.5t-2.5 7.5q0 3 -5 10l-18 -1v-5v-5q0 -2 -3 -5q-1 -1 -1.5 -2t-2.5 -2t-6 -1h-6zM249 558l-9 -76l-118 12l8 75l19 -1l-6 -56l30 -4l5 46l20 -1l-5 -46l31 -3l5 57zM149 578l-17 5l22 89l19 -5l-10 -37l97 -23l-4 -18l-97 24zM190 714l-17 9
l41 82l16 -8l-15 -32l89 -45l-8 -17l-90 45zM377 832l-11 -16l-40 30l-35 -47l41 -30l-11 -15l-97 70l11 15l40 -29l35 47l-40 30l11 16zM441 893l-54 -52l-83 86l53 53l14 -15l-39 -39l20 -21l33 31l13 -14l-32 -30l21 -23l41 39zM499 1016l10 -17l-39 -24l24 -42l-14 -11
l-63 101l63 40l9 -16l-46 -30l17 -26zM547 1016q0 -7 6 -10q1 -3 9 -7q2 -1 5 -1h5q6 -1 11 1q7 3 10 7q5 5 6 10q1 2 1 10q0 7 -1 11l-27 67l17 8l29 -68q1 -5 1.5 -9t0.5 -9q0 -10 -3 -19q-2 -4 -4.5 -7.5t-7.5 -6.5q-2 -5 -5.5 -7t-8.5 -4t-9.5 -3t-9.5 -1q-8 0 -18 4
q-5 2 -8.5 4t-6.5 6q-7 7 -10 16l-30 66l18 8zM647 1003l-29 116l20 5l22 -97l49 11l4 -20zM716 1018l-12 119l20 2l10 -98l51 5v-20zM849 1023l-19 3l12 118l44 -5q6 0 14 -4q9 -5 11 -10q4 -3 7 -13q3 -7 2 -14q-2 -4 -2.5 -7.5t-2.5 -8.5q-6 -8 -9 -11q-4 -3 -14 -7
q-3 -1 -13 -1l-25 3zM880 1082h7q3 1 7 6q3 0 3 5q2 1 4 7q0 5 -1 7t-2 3.5t-1 2.5l-3 3t-3 2t-3.5 1t-2.5 1l-25 3l-5 -39zM936 1011l-19 5l31 113l43 -11q6 0 12 -6q5 -4 9 -10q4 -5 4 -13q1 -5 0.5 -8t-0.5 -7q-2 -5 -5 -10t-6 -7q-7 -5 -10 -5q-2 -2 -4.5 -2.5
t-4.5 -1.5l22 -57l-15 2q-2 1 -3.5 2.5t-3.5 2.5q-3 1 -5 8l-19 46l-14 4zM962 1105l-9 -31l24 -6q2 0 3 -0.5t3 0.5q2 0 3.5 0.5t3.5 0.5t2 1.5t1 2.5q4 4 4 6q1 3 1 7q-1 2 -1 3.5t-1 3.5q-1 1 -2.5 1.5t-1.5 2.5q-3 3 -6 3zM1022 1048q1 4 3.5 7.5t5.5 6.5q2 3 5 5.5
t6 4.5q3 3 6.5 4t8.5 3q4 3 14 3h15q9 -1 17 -6q7 -3 14 -8q3 -4 5.5 -7t4.5 -5q2 -3 3.5 -6.5t3.5 -7.5q1 -4 2 -7.5t1 -7.5v-7.5t-2 -8.5q-1 -4 -1.5 -7.5t-3.5 -7.5l-3.5 -7l-3.5 -7q-4 -3 -7 -5t-5 -6q-4 -2 -7 -4t-7 -4q-6 0 -16 -2q-12 0 -17 1t-15 5q-11 6 -18 15
q-8 9 -13 21q-2 6 -2 11v12q0 11 6 22zM1039 1041q-2 -3 -2.5 -6t-2.5 -6v-10q0 -2 1 -5t2 -5q1 -6 4 -10q2 -2 3.5 -4t3.5 -3q3 -4 9 -6q7 -4 11 -4h11q7 0 12 1q4 4 8 4q3 2 5 4t4 3q2 3 3 5.5t3 4.5q2 4 2.5 8t1.5 9q0 4 -0.5 7.5t-0.5 7.5q-2 4 -4.5 7.5t-4.5 5.5
q-7 7 -14 10q-2 2 -5 2.5t-6 1.5h-10q-7 0 -10 -2q-4 -2 -6 -2.5t-4 -1.5l-4 -4t-3 -4q-7 -5 -7 -8zM1208 1016l9 -8q1 -2 2 -3.5t3 -3.5q0 -5 -2 -8l-27 -86l82 38q1 1 8 1q4 0 6 -3l10 -8l-117 -54l-14 11zM1264 790l-46 56l90 76l48 -56l-14 -14l-37 44l-22 -19l28 -36
l-16 -11l-27 35l-24 -21l35 -42zM1279 765l-9 16l101 61l23 -37q2 -3 2.5 -6t2.5 -8q2 -7 -2 -12q-2 -9 -5 -13l-4.5 -4.5t-6.5 -5.5q-3 -1 -5 -1.5t-5 -1.5q-3 0 -5 -1t-5 1q-4 0 -10 2q-3 1 -5 2t-4 3l-23 -59l-9 13q-4 2 -4 7q0 7 3 9l20 48l-8 12zM1366 815l-29 -16
l13 -19q3 -5 4 -6q1 0 6 -3h6q2 0 5 3q2 0 6 4q0 2 1 3t1 3q1 1 1 6q-1 1 -1 2.5t-2 3.5zM1421 695q1 1 1 8q0 3 -1 5q-2 2 -2 6q-3 0 -5 4q-2 1 -5 1q-3 1 -5 0t-2.5 -2t-1.5 -2t-2 -1.5t-2 -2.5v-7v-10v-3v-2v-10q0 -2 -0.5 -4.5t-0.5 -4.5q-4 -14 -19 -21q-4 -2 -7.5 -3
t-8.5 1q-6 0 -14 2q-3 3 -6.5 5t-5.5 6q-3 2 -5 5.5t-4 7.5q-2 10 -2 15q0 3 2 13q0 3 3 5l2 4q0 4 2 4q4 2 3 2l4 -2q3 -5 5 -6q0 -2 0.5 -3t0.5 -2q0 -4 -3 -7v-1v-7q0 -5 2 -9q0 -1 1 -2.5t2 -3.5q2 -1 3.5 -2.5t3.5 -2.5q1 -1 2.5 -1t3.5 -2h4.5t4.5 2q2 0 5 3q2 4 2 5
q1 3 1 8v7v4v12q0 8 2 13q1 2 2.5 4.5t3.5 5.5q3 2 5 3.5t6 3.5q8 3 14 2q6 0 12 -4q3 -2 6.5 -3.5t5.5 -5.5q3 -3 6 -11q2 -6 2 -10q0 -6 -1 -10q0 -4 -3 -10q-1 -2 -1 -4t-2 -4l-6 4q-3 1 -4 2.5t-3 3.5l-1.5 4.5t0.5 4.5zM1349 607l-5 18l114 34l5 -19zM1412 607h19
q6 0 14 -4q4 -1 7.5 -3.5t5.5 -4.5q3 -2 6.5 -4.5t5.5 -6.5q4 -8 8 -12q2 -8 4 -18v-15q-2 -10 -4 -15t-4 -8.5t-4 -6.5l-10 -10q-4 -4 -7.5 -5t-6.5 -3q-7 -4 -15 -4q-10 -1 -19 0q-8 0 -15 4q-2 2 -5.5 3t-7.5 4q-3 2 -5.5 5.5t-4.5 5.5q-6 5 -8 15q-2 3 -3.5 6.5
t-1.5 8.5q-1 13 1 24q5 12 10 20q7 9 18 16q5 3 11 5.5t11 2.5zM1415 588q-7 0 -10 -4q-5 -1 -10 -5q-4 -1 -6 -7q-5 -5 -5 -9q-2 -2 -2.5 -5t-1.5 -5v-11q2 -8 4 -11q0 -6 5 -9q1 -3 3 -5t3 -4q3 -1 5 -2.5t5 -2.5q2 -2 5 -2h5q5 -3 11 0q11 0 17 5q5 2 12 11q6 8 6 15
q3 7 1 16q0 6 -2 10q-2 3 -3 5l-2 4l-4 4t-4 3q-5 4 -10 5q-3 4 -11 4q-4 2 -11 0zM1362 371l2 16l96 60l-91 6l1 19l118 -9l-1 -12q0 -5 -1 -8q-3 -3 -4 -5l-81 -51l82 -6l-2 -19z" />
    <glyph glyph-name="currency" unicode="&#xa4;" 
d="M807 34q82 0 155 30t131 79h-570q57 -49 129 -79t155 -30zM571 189h564q45 55 70 124t25 147q0 80 -26.5 150t-80.5 139zM807 977q-104 0 -197.5 -39.5t-164 -109t-112.5 -164t-42 -204.5q0 -103 39.5 -196t108.5 -163.5t163.5 -112.5t204.5 -42q35 0 70 5.5t68 15.5
q78 23 146.5 68t119.5 109t80.5 144t29.5 172q0 101 -38.5 194.5t-107 165t-163 114.5t-205.5 43zM807 -14q-100 0 -186 38.5t-149.5 103.5t-99.5 151t-36 181q0 94 35 179.5t98 151t149.5 104t188.5 38.5q67 0 124 -17q72 -19 135 -60t110.5 -100t75 -134t27.5 -162
q0 -98 -37 -184.5t-101.5 -151t-150.5 -101.5t-183 -37zM478 730q-46 -55 -71.5 -122.5t-25.5 -147.5q0 -82 28.5 -155t77.5 -131l555 556h-564zM807 887q-83 0 -155.5 -29t-130.5 -80h566q-54 50 -126 79.5t-154 29.5zM957 -83l-90 -16l4 -26l34 6l16 -89l26 5l-16 89l31 6
zM1058 -117q-2 6 -9 8l-11 5h-15h-7h-9h-2v1q-3 3 -3 4l-2 1q2 1 2 4q0 1 1 1h2q0 1 5 1v3h1h5h3q4 0 4 1q4 0 8 1q0 2 1 3t1 2l5 10l-7 3q-8 4 -12 4q-2 0 -4.5 1t-4.5 1q-4 0 -6 -1t-4 -1l-13 -7q-2 -2 -4 -4.5t-3 -6.5q-7 -6 -7 -14v-5t2 -7q3 -8 10 -13q1 -1 3.5 -2.5
t4.5 -3.5q3 0 6.5 -1t5.5 -1h13h9h2q2 0 4 -2q3 0 3 -2h3v-5q0 -2 -0.5 -3t-0.5 -2v-1q-2 0 -3 -2.5t-2 -2.5q-2 -2 -6 -2q0 -1 -2 -1h-3q-2 0 -3 0.5t-3 0.5h-6h-8l-4 -2q-1 0 -1 -1.5t-1 -1.5l-5 -8q1 -4 3 -5.5t4 -4.5q3 -1 6.5 -2t6.5 -1q8 -3 12 -2q3 0 7 1t8 1
q3 2 6.5 3.5t7.5 4.5q4 4 5.5 6t4.5 7q1 4 3 7t2 8q0 4 -0.5 7.5t-3.5 6.5q0 8 -5 11zM1108 -122q-2 3 -4 3t-3.5 1t-3.5 1q-1 -2 -6 -2l-7 -4q-1 -1 -1 -3v-2q-2 -2 -2 -4v-2q0 -3 1 -4q0 -1 1 -1q0 -6 3 -6q2 -5 7 -5h6q5 0 7 2q1 2 3 2.5t2 2.5v2q0 2 2 2l3 3v2q0 6 -5 6
q0 6 -3 6zM831 -175q-1 0 -1 4q0 1 -1.5 1t-1.5 1q0 4 -1 4l-41 60q0 1 -2 2q-2 3 -9 3h-9h-14l3 -119l27 1v79l51 -79h25v118h-30zM584 -85l48 -18l8 25l-72 26l-42 -105l26 -12l15 41l38 -15l10 26l-37 14zM733 -114l-9 11q-3 3 -6.5 5t-7.5 4t-7 2.5t-8 2.5q-5 1 -8.5 1
h-7.5q-10 0 -14 -4q-4 -1 -7.5 -2t-7.5 -4l-11 -10q-4 -8 -10 -11q-2 -5 -3.5 -8.5t-1.5 -6.5v-18l3 -15l6 -13l11 -11q3 -4 7 -5.5t6 -3.5q7 -4 15 -4q5 -1 8.5 -1h7.5q5 0 13 2q4 2 8.5 3t6.5 4q6 2 12 10l8 11q4 7 7 17v15q0 3 -1 6.5t-3 8.5q-1 5 -2.5 7.5t-3.5 6.5z
M715 -153q0 -3 -1.5 -6.5t-3.5 -5.5q-3 -4 -4.5 -5.5l-4.5 -4.5q-3 -1 -5.5 -2t-6.5 -1q-6 -3 -11 0q-4 0 -7.5 1t-5.5 2l-8 10q-2 2 -2.5 5.5t-0.5 6.5q-3 5 0 14q0 6 5 11l6 9l13 5h11l12 -5l9 -9q2 -3 3.5 -5t1.5 -6q2 -8 0 -14zM1294 186q-1 -2 -2.5 -4t-1.5 -6
q0 -2 1.5 -4t2.5 -4l40 -58l-69 10h-10l-9 -6l-8 -16l96 -65l16 22l-46 33l60 -13l11 20l-33 50l47 -30l15 24l-98 64zM1281 59l-13 13l-15 3q-4 3 -15 3q-4 0 -7.5 -0.5t-7.5 -2.5l-13 -3q-4 -3 -8 -6.5t-7 -6.5l-4 -6t-4 -5q-3 -4 -4 -7.5t-3 -7.5q0 -4 -1 -7.5t-1 -7.5
v-7t2 -8l4 -14l10 -12l14 -10q4 -1 7 -3.5t8 -2.5q4 0 7.5 -1.5t7.5 -1.5q2 0 6 1.5t9 1.5q2 0 5.5 2.5t7.5 3.5q7 3 13 10l10 12q1 2 3 5.5t2 8.5q1 4 1 14v16l-6 12q-2 4 -4 7.5t-4 6.5zM1268 6q-4 -9 -8 -10q-7 -7 -10 -8q-3 -2 -6.5 -2h-5.5q-4 0 -7 1t-5 1l-11 8
q-4 4 -7 11q-1 4 -1 11q0 8 1 11q3 8 7 12l11 8q3 0 6 0.5t6 0.5q4 0 12 -2q2 -2 4.5 -3.5t5.5 -5.5q3 -1 4.5 -4t3.5 -6t2 -12v-5.5t-2 -5.5zM1194 -54l-7 -4q-2 0 -3 -2.5t-1 -4.5l-5 -9l-9 -6q-4 -2 -6 -3.5t-5 -1.5q-7 -3 -13 0q-2 2 -5 2.5t-6 2.5q-6 4 -7 11
q-5 2 -5 11q-4 3 0 14q0 2 0.5 4t1.5 7l4 4t5 3q7 4 9 4q3 1 10 1q2 0 10 4q2 3 5 5l2 6v9q-3 4 -12 4h-13l-14 -5l-11 -5q-2 -2 -5.5 -4.5t-6.5 -6.5q-2 -2 -4 -5.5t-4 -7.5l-6 -15v-16q0 -4 1.5 -7t1.5 -7l6 -15q3 -4 6 -6t5 -5l14 -10l12 -2q5 -2 16 -2q4 0 7 1t7 2
q5 1 8.5 3.5t6.5 5.5l5 2.5t5 4.5q3 1 5 4t5 6l4 14q4 4 4 13l-12 2h-6zM504 -14l-102 -74l16 -9q0 -1 2 -1h3q2 0 2.5 -0.5t2.5 0.5h5q3 0 4 1l11 9l39 -22l-2 -15v-5q0 -2 1 -3q0 -1 1 -1v-3q0 -2 2 -2l4 -3l16 -10l17 125zM493 -56v-2v-3l-2 -22l-18 11l16 14h2q2 0 2 1
v1v1h1q1 1 2 1zM463 -19l17 20l-69 59l-20 -21l27 -21l-58 -67l20 -18l60 69zM243 137l82 -10q2 0 6 1q2 0 2.5 0.5t2.5 0.5l11 8l-45 77l-23 -14l26 -44l-82 9q-2 0 -5.5 -0.5t-7.5 -3.5l-10 -5l45 -78l23 14zM342 29l22 19l-27 30l14 11l31 -39l21 18l-49 60l-90 -76
l51 -58l19 18l-32 37l17 11zM176 468l50 3q2 -2 4.5 -4t3.5 -4q2 -2 3.5 -5t1.5 -5q1 -7 4 -12q0 -3 0.5 -6t0.5 -5q0 -8 -0.5 -14t-3.5 -11q-1 -7 -4 -12t-7 -10q-7 -9 -19 -13q-11 -7 -22 -7h-18q-4 2 -7.5 3.5t-7.5 3.5q-4 1 -6.5 3t-5.5 4l-6 6t-5 7q-2 2 -3.5 5.5
t-3.5 7.5q-1 5 -1.5 9t-1.5 9v6.5t1 5.5q2 8 2 13q2 3 3.5 5.5t3.5 5.5q2 2 3.5 5t3.5 5l4 -4q2 -1 3 -2t2 -1q1 -3 1 -7v-4t-2 -3q-4 -5 -4 -11q-1 -5 -1 -13t3 -17q3 -4 5.5 -7t4.5 -6q5 -5 14 -7q7 -4 17 -3q6 0 12 3l4 2t4 3t4.5 3t4.5 4q1 2 2.5 4t3.5 4q0 4 1 6.5
t2 5.5q1 4 1 11q-1 3 -1.5 6.5t-2.5 7.5q0 3 -5 10l-18 -1v-5v-5q0 -2 -3 -5q-1 -1 -1.5 -2t-2.5 -2t-6 -1h-6zM249 558l-9 -76l-118 12l8 75l19 -1l-6 -56l30 -4l5 46l20 -1l-5 -46l31 -3l5 57zM149 578l-17 5l22 89l19 -5l-10 -37l97 -23l-4 -18l-97 24zM190 714l-17 9
l41 82l16 -8l-15 -32l89 -45l-8 -17l-90 45zM377 832l-11 -16l-40 30l-35 -47l41 -30l-11 -15l-97 70l11 15l40 -29l35 47l-40 30l11 16zM441 893l-54 -52l-83 86l53 53l14 -15l-39 -39l20 -21l33 31l13 -14l-32 -30l21 -23l41 39zM499 1016l10 -17l-39 -24l24 -42l-14 -11
l-63 101l63 40l9 -16l-46 -30l17 -26zM547 1016q0 -7 6 -10q1 -3 9 -7q2 -1 5 -1h5q6 -1 11 1q7 3 10 7q5 5 6 10q1 2 1 10q0 7 -1 11l-27 67l17 8l29 -68q1 -5 1.5 -9t0.5 -9q0 -10 -3 -19q-2 -4 -4.5 -7.5t-7.5 -6.5q-2 -5 -5.5 -7t-8.5 -4t-9.5 -3t-9.5 -1q-8 0 -18 4
q-5 2 -8.5 4t-6.5 6q-7 7 -10 16l-30 66l18 8zM647 1003l-29 116l20 5l22 -97l49 11l4 -20zM716 1018l-12 119l20 2l10 -98l51 5v-20zM849 1023l-19 3l12 118l44 -5q6 0 14 -4q9 -5 11 -10q4 -3 7 -13q3 -7 2 -14q-2 -4 -2.5 -7.5t-2.5 -8.5q-6 -8 -9 -11q-4 -3 -14 -7
q-3 -1 -13 -1l-25 3zM880 1082h7q3 1 7 6q3 0 3 5q2 1 4 7q0 5 -1 7t-2 3.5t-1 2.5l-3 3t-3 2t-3.5 1t-2.5 1l-25 3l-5 -39zM936 1011l-19 5l31 113l43 -11q6 0 12 -6q5 -4 9 -10q4 -5 4 -13q1 -5 0.5 -8t-0.5 -7q-2 -5 -5 -10t-6 -7q-7 -5 -10 -5q-2 -2 -4.5 -2.5
t-4.5 -1.5l22 -57l-15 2q-2 1 -3.5 2.5t-3.5 2.5q-3 1 -5 8l-19 46l-14 4zM962 1105l-9 -31l24 -6q2 0 3 -0.5t3 0.5q2 0 3.5 0.5t3.5 0.5t2 1.5t1 2.5q4 4 4 6q1 3 1 7q-1 2 -1 3.5t-1 3.5q-1 1 -2.5 1.5t-1.5 2.5q-3 3 -6 3zM1022 1048q1 4 3.5 7.5t5.5 6.5q2 3 5 5.5
t6 4.5q3 3 6.5 4t8.5 3q4 3 14 3h15q9 -1 17 -6q7 -3 14 -8q3 -4 5.5 -7t4.5 -5q2 -3 3.5 -6.5t3.5 -7.5q1 -4 2 -7.5t1 -7.5v-7.5t-2 -8.5q-1 -4 -1.5 -7.5t-3.5 -7.5l-3.5 -7l-3.5 -7q-4 -3 -7 -5t-5 -6q-4 -2 -7 -4t-7 -4q-6 0 -16 -2q-12 0 -17 1t-15 5q-11 6 -18 15
q-8 9 -13 21q-2 6 -2 11v12q0 11 6 22zM1039 1041q-2 -3 -2.5 -6t-2.5 -6v-10q0 -2 1 -5t2 -5q1 -6 4 -10q2 -2 3.5 -4t3.5 -3q3 -4 9 -6q7 -4 11 -4h11q7 0 12 1q4 4 8 4q3 2 5 4t4 3q2 3 3 5.5t3 4.5q2 4 2.5 8t1.5 9q0 4 -0.5 7.5t-0.5 7.5q-2 4 -4.5 7.5t-4.5 5.5
q-7 7 -14 10q-2 2 -5 2.5t-6 1.5h-10q-7 0 -10 -2q-4 -2 -6 -2.5t-4 -1.5l-4 -4t-3 -4q-7 -5 -7 -8zM1208 1016l9 -8q1 -2 2 -3.5t3 -3.5q0 -5 -2 -8l-27 -86l82 38q1 1 8 1q4 0 6 -3l10 -8l-117 -54l-14 11zM1264 790l-46 56l90 76l48 -56l-14 -14l-37 44l-22 -19l28 -36
l-16 -11l-27 35l-24 -21l35 -42zM1279 765l-9 16l101 61l23 -37q2 -3 2.5 -6t2.5 -8q2 -7 -2 -12q-2 -9 -5 -13l-4.5 -4.5t-6.5 -5.5q-3 -1 -5 -1.5t-5 -1.5q-3 0 -5 -1t-5 1q-4 0 -10 2q-3 1 -5 2t-4 3l-23 -59l-9 13q-4 2 -4 7q0 7 3 9l20 48l-8 12zM1366 815l-29 -16
l13 -19q3 -5 4 -6q1 0 6 -3h6q2 0 5 3q2 0 6 4q0 2 1 3t1 3q1 1 1 6q-1 1 -1 2.5t-2 3.5zM1421 695q1 1 1 8q0 3 -1 5q-2 2 -2 6q-3 0 -5 4q-2 1 -5 1q-3 1 -5 0t-2.5 -2t-1.5 -2t-2 -1.5t-2 -2.5v-7v-10v-3v-2v-10q0 -2 -0.5 -4.5t-0.5 -4.5q-4 -14 -19 -21q-4 -2 -7.5 -3
t-8.5 1q-6 0 -14 2q-3 3 -6.5 5t-5.5 6q-3 2 -5 5.5t-4 7.5q-2 10 -2 15q0 3 2 13q0 3 3 5l2 4q0 4 2 4q4 2 3 2l4 -2q3 -5 5 -6q0 -2 0.5 -3t0.5 -2q0 -4 -3 -7v-1v-7q0 -5 2 -9q0 -1 1 -2.5t2 -3.5q2 -1 3.5 -2.5t3.5 -2.5q1 -1 2.5 -1t3.5 -2h4.5t4.5 2q2 0 5 3q2 4 2 5
q1 3 1 8v7v4v12q0 8 2 13q1 2 2.5 4.5t3.5 5.5q3 2 5 3.5t6 3.5q8 3 14 2q6 0 12 -4q3 -2 6.5 -3.5t5.5 -5.5q3 -3 6 -11q2 -6 2 -10q0 -6 -1 -10q0 -4 -3 -10q-1 -2 -1 -4t-2 -4l-6 4q-3 1 -4 2.5t-3 3.5l-1.5 4.5t0.5 4.5zM1349 607l-5 18l114 34l5 -19zM1412 607h19
q6 0 14 -4q4 -1 7.5 -3.5t5.5 -4.5q3 -2 6.5 -4.5t5.5 -6.5q4 -8 8 -12q2 -8 4 -18v-15q-2 -10 -4 -15t-4 -8.5t-4 -6.5l-10 -10q-4 -4 -7.5 -5t-6.5 -3q-7 -4 -15 -4q-10 -1 -19 0q-8 0 -15 4q-2 2 -5.5 3t-7.5 4q-3 2 -5.5 5.5t-4.5 5.5q-6 5 -8 15q-2 3 -3.5 6.5
t-1.5 8.5q-1 13 1 24q5 12 10 20q7 9 18 16q5 3 11 5.5t11 2.5zM1415 588q-7 0 -10 -4q-5 -1 -10 -5q-4 -1 -6 -7q-5 -5 -5 -9q-2 -2 -2.5 -5t-1.5 -5v-11q2 -8 4 -11q0 -6 5 -9q1 -3 3 -5t3 -4q3 -1 5 -2.5t5 -2.5q2 -2 5 -2h5q5 -3 11 0q11 0 17 5q5 2 12 11q6 8 6 15
q3 7 1 16q0 6 -2 10q-2 3 -3 5l-2 4l-4 4t-4 3q-5 4 -10 5q-3 4 -11 4q-4 2 -11 0zM1362 371l2 16l96 60l-91 6l1 19l118 -9l-1 -12q0 -5 -1 -8q-3 -3 -4 -5l-81 -51l82 -6l-2 -19z" />
    </font>
</defs>
</svg>
